новый адрес
Ссылка на приватное зеркало всего за 1$. Внимание количество ограничено!!!

iTunes

1+1

iTunes

мы

WEB-DL

1

iTunes

Чернобыль

iTunes

Ральф против интернета

Лицензия

ПШазам

Лицензия

Оно 2

Лицензия

30
pack

Вам бонус

ВАЖНО

!!Акция!!

Alien_RageХит недели

RePack

Resident Evil 21

ИГРА 18+

pack

RePack

jed

!!Акция!!

Alien_Rage

RePack

fifa19

RePack

Assassins Creed: Odyssey

RePack

NEED FOR SPEED™ PAYBACK

3 сезон

9 сезон

Бесстыжие 9 сезон

Все сериалы

все сериалы на PB.wtf

RePack

FAR CRY 5
Ребята, катастрофически не хватает 1900р. для оплаты серверов за Октябрь (всвязи с блокировками трафик упал в 3 раза), 1-2р., выручайте.
  

Как это заканчивается / How It Ends (Дэвид М. Розенталь) [2018, фантастика, боевик, триллер, приключения, WEB-DLRip] MVO [Jaskier] pb.wtf

Как это заканчивается через торрент pb.wtf

Размер: 1.46 GB | Добавлен: 11 мес. назад | Торрент скачан:306 раз
Скачать  

01-12-2018 12:36 Как это заканчивается Скачать торрент  

Как это заканчивается / How It Ends
Год выпуска: 2018
Страна: Китай, США
Жанр: фантастика, боевик, триллер, приключения
Продолжительность: 01:52:39
Перевод: Профессиональный (многоголосый) | Jaskier
Субтитры: отсутствуют

Режиссер: Дэвид М. Розенталь

rating


В ролях:

Тео Джеймс, Катерина Грэхэм, Керри Бише, Форест Уитакер, Грэйс Дав, Лэни МакОли, Марк О Брайэн, Нэнси Сорел, АрДжей Фезерстонхо, Джош Круддас

Описание:

По всей стране прогремели взрывы, возможно, землетрясения. Нет связи и электричества. Повсюду огонь и пепел. Люди кидаются друг на друга с оружием ради канистры с бензином. Во всем этом апокалиптическом безумии отчаянный муж пытается вернуться к беременной жене, пока не начался полнейший хаос.

Качество: WEB-DLRip
Формат: AVI

Видео: XviD, 1398 Кбит/с, 720x304
Аудио: AC3, 6 ch, 448 kbps
скриншот  скриншот  скриншот  скриншот  скриншот  

Общее
Полное имя : G:ЗагрузкиHow.It.Ends.2018.WEB-DLRip.Jaskier.avi
Формат : AVI
Формат/Информация : Audio Video Interleave
Размер файла : 1,46 Гбайт
Продолжительность : 1 ч. 52 м.
Общий поток : 1856 Кбит/сек
Программа кодирования : VirtualDubMod 1.5.10.3 | www.virtualdub-fr.org || (build 2550/release)
Библиотека кодирования : VirtualDubMod build 2550/release

Видео
Идентификатор : 0
Формат : MPEG-4 Visual
Профиль формата : Advanced Simple@L5
Настройки формата : BVOP1 / Custom Matrix
Параметр BVOP формата : 1
Параметр QPel формата : Нет
Параметр GMC формата : Без точки перехода
Параметр матрицы формата : Выборочная
Идентификатор кодека : XVID
Идентификатор кодека/Подсказка : XviD
Продолжительность : 1 ч. 52 м.
Битрейт : 1399 Кбит/сек
Ширина : 720 пикселей
Высота : 304 пикселя
Соотношение сторон : 2,35:1
Частота кадров : 23,976 (24000/1001) кадра/сек
Цветовое пространство : YUV
Субдискретизация насыщенности : 4:2:0
Битовая глубина : 8 бит
Тип развёртки : Прогрессивная
Метод сжатия : С потерями
Бит/(Пиксели*Кадры) : 0.267
Размер потока : 1,10 Гбайт (75%)
Библиотека кодирования : XviD 73

Аудио
Идентификатор : 1
Формат : AC-3
Формат/Информация : Audio Coding 3
Коммерческое название : Dolby Digital
Идентификатор кодека : 2000
Продолжительность : 1 ч. 52 м.
Вид битрейта : Постоянный
Битрейт : 448 Кбит/сек
Каналы : 6 каналов
Channel layout : L R C LFE Ls Rs
Частота : 48,0 КГц
Частота кадров : 31,250 кадров/сек (1536 SPF)
Битовая глубина : 16 бит
Метод сжатия : С потерями
Размер потока : 361 Мбайт (24%)
Выравнивание : Разделение по промежуткам
Продолжительность промежутка : 42 мс. (1,00 видеокадр)
Время предзагрузки промежутка : 500 мс.
pb.wtf



Скачать Как это заканчивается через торрент http://img14.lostpic.net/2018/12/01/49c59b1999081680096c64e361fb0074.jpg Скачать фильм Как это заканчивается через торрент бесплантно в хорошем качестве Описание: По всей стране прогремели взрывы, возможно, землетрясения. Нет связи и электричества. Повсюду огонь и пепел. Люди кидаются друг ... 9.8 10 12
Торрент: Зарегистрирован [2018-12-19 05:53] · скачан: 306 раз
Статус: √ проверено
Размер: 1.46 GB
Как cкачать? Как скачать Как это заканчивается через торрент | qTorrent

% Раздел Тема Автор DL S | L
Фильмы (WEB-DL 720p, 1080p) [ 5.23 GB ] Как это заканчивается / How It Ends [2018 WEB-DL 720p] MVO [Jaskier] bober100 Скачать
2 | 0
Фильмы (WEB-DL 720p, 1080p) [ 10.65 GB ] Как это заканчивается / How It Ends [2018 WEB-DL 1080p] MVO [HDrezka Studio] bober100 Скачать
1 | 0
Ultra HD (UHD: 2K, 4K, 8K) — видео сверхвысокой чёткости [ 24.51 GB ] Как это заканчивается / How It Ends [2018 UHD WEBRip 2160p] 2xMVO [HDrezka Studio NewStudio] bober100 Скачать
1 | 0
T Фильмы (мультфильмы) cо спонсором показа (Новинки AVI/MKV) [ 1.37 GB ] Как это заканчивается / Как всё закончится / How It Ends [2018 WEB-DLRip] [MVO] killermax2013 Скачать
3 | 0
Фильмы 2018 [DVDrip, WEB-DLRip, HDrip] (DUB, MVO) [ 1.46 GB ] Как это заканчивается / How It Ends [2018 WEB-DLRip-AVC] MVO [HDrezka Studio] bober100 Скачать
1 | 0
Фильмы 2018 [DVDrip, WEB-DLRip, HDrip] (DUB, MVO) [ 1.46 GB ] Как это заканчивается / How It Ends [2018 WEB-DLRip] MVO [HDrezka Studio] bober100 Скачать
1 | 0
Фильмы (WEB-DL 720p, 1080p) [ 5.23 GB ] Как это заканчивается / How It Ends [2018 WEB-DL 720p HDRezka Studio] lic007 Скачать
2 | 0

28-11-2019 20:33  

Отключить всю рекламу на сайте

    Дорогой пользователь! Огромная просьба, поблагодарите релизера, оцените раздачу и оставьте свои комментарий, если Вы скачали Как это заканчивается через торрент бесплатно! Внесите свою лепту в развитие PiratBit!
    Комментировать посты могут только пользователи прошедшие не сложную регистрацию
    Показать сообщения:    

    Как это заканчивается через торрент
    Скачать бесплатно Как это заканчивается
    Как это заканчивается скачать торрент
    Как это заканчивается смотреть онлайн
    Cкачать фильм Как это заканчивается бесплатно
    Как это заканчивается скачать торрент в хорошем качестве
    Как это заканчивается смотреть онлайн бесплатно в хорошем качестве


    Вы не можете начинать темы
    Вы не можете отвечать на сообщения
    Вы не можете редактировать свои сообщения
    Вы не можете удалять свои сообщения
    Вы не можете голосовать в опросах
    Вы не можете прикреплять файлы к сообщениям
    Вы можете скачивать файлы