Ссылка на приватное зеркало нашего сайта всего за 1$. Внимание количество ограничено!!!

2 сезон

iTunes

1 сезон

1

2 сезон

2 сезон

iTunes

1 сезон

RePack

30

Ultimate

ВАЖНО

ИГРА 18+

pack

RePack

MK11
pack

Забери бонус

RePack

jed

!!Акция!!

Alien_Rage

RePack

fifa19

RePack

Assassins Creed: Odyssey

RePack

NEED FOR SPEED™ PAYBACK

4 сезон

9 сезон

Бесстыжие 9 сезон

Все сериалы

все сериалы на PB.wtf

RePack

FAR CRY 5
  

Леденящие душу приключения Сабрины / Chilling Adventures of Sabrina / Сезон: 1 / Серии 1-10 из 10 (Роб Шейденгланц, Мэгги Кили, Ли Толанд Кригер) [2018, Ужасы, фэнтези, триллер, драма, детектив, WEBRip 720p] [DUB] (Netflix) pb.wtf

Леденящие душу приключения Сабрины через торрент pb.wtf

Размер: 10.34 GB | Добавлен: 1 год 11 мес. назад | Торрент скачан:56 раз
Скачать  

01-12-2018 13:47 Леденящие душу приключения Сабрины Скачать торрент  

Леденящие душу приключения Сабрины | Chilling Adventures of Sabrina
Год выпуска: 2018
Страна: США
Жанр: Ужасы, фэнтези, триллер, драма, детектив
Продолжительность: ~ 01:01:00
Перевод: Профессиональный (полное дублирование) | Netflix
Режиссёр: Роб Шейденгланц, Мэгги Кили, Ли Толанд Кригер
В ролях: Кирнан Шипка, Росс Линч, Люси Дэвис, Мишель Гомес, Жасмин Сабино, Тати Габриэль, Ричард Койл, Миранда Отто, Бронсон Пиншо
Описание: Обновленная версия приключений маленькой ведьмы Сабрины в виде тёмной истории взросления с элементами хоррора, оккультизма и ведьмовства. Сабрина пытается найти себя истинную между своими натурами смертной и ведьмы, при этом ей придётся противостоять злым силам, которые угрожают ей, её семье и всему миру людей
скриншот  

Качество: WEBRip 720p
Контейнер: MKV
Видео: 1280x580, 23.976 fps, MPEG-4 AVC, ~1857 Кбит/сек
Аудио Rus: 48 kHz, AC3, 3/2 (L,C,R,l,r) + LFE ch, 384 Кбит/сек | Netflix
Аудио Eng: 48 kHz, AC3, 3/2 (L,C,R,l,r) + LFE ch, 640 Кбит/сек
Субтитры: Русские (Forced, Full), английские, немецкие, испанские, датские, финские, французские, итальянские, индонезийские, норвежские, голландские, польские, португальские, шведские, турецкие, греческие и др.
    01. Глава первая: Октябрьская страна | Chapter One: October Country
    02. Глава вторая: Тёмные крестины | Chapter Two: The Dark Baptism
    03. Глава третья: Суд над Сабриной Спеллман | Chapter Three: The Trial of Sabrina Spellman
    04. Глава четвёртая: Академия ведьм | Chapter Four: Witch Academy
    05. Глава пятая: Сны в ведьмином доме | Chapter Five: Dreams in a Witch House
    06. Глава шестая: Экзорцизм в Гриндэйле | Chapter Six: An Exorcism in Greendale
    07. Глава седьмая: Пир пиров | Chapter Seven: Feast of Feasts
    08. Глава восьмая: Поглощение | Chapter Eight: The Burial
    09. Глава девятая: Вернувшийся человек | Chapter Nine: The Returned Man
    10. Глава десятая: Час ведьмы | Chapter Ten: The Witching Hour

Общее
Уникальный идентификатор : 197884663967933425758506942939707210350 (0x94DF33325A853710DD30AEFB095BFA6E)
Полное имя : E:\The.Chilling.Adventures.of.Sabrina.S01.720p.WEBRip.x264-EniaHD\The.Chilling.Adventures.of.Sabrina.S01E01.720p.WEBRip.x264-EniaHD.mkv
Формат : Matroska
Версия формата : Version 4
Размер файла : 1,24 Гбайт
Продолжительность : 1 ч. 1 м.
Общий поток : 2886 Кбит/сек
Название фильма : The.Chilling.Adventures.of.Sabrina.S01E01.720p.WEBRip.x264-EniaHD
Дата кодирования : UTC 2018-11-10 07:25:57
Программа кодирования : mkvmerge v28.2.0 ('The Awakening') 64-bit
Библиотека кодирования : libebml v1.3.6 + libmatroska v1.4.9

Видео
Идентификатор : 1
Формат : AVC
Формат/Информация : Advanced Video Codec
Профиль формата : High@L4.1
Настройки формата : CABAC / 5 Ref Frames
Параметр CABAC формата : Да
Параметр RefFrames формата : 5 кадров
Идентификатор кодека : V_MPEG4/ISO/AVC
Продолжительность : 1 ч. 1 м.
Битрейт : 1857 Кбит/сек
Ширина : 1280 пикселей
Высота : 580 пикселей
Соотношение сторон : 2,2:1
Режим частоты кадров : Постоянный
Частота кадров : 23,976 (24000/1001) кадра/сек
Цветовое пространство : YUV
Субдискретизация насыщенности : 4:2:0
Битовая глубина : 8 бит
Тип развёртки : Прогрессивная
Бит/(Пиксели*Кадры) : 0.104
Размер потока : 820 Мбайт (64%)
Библиотека кодирования : x264 core 157 r2935 545de2f
Настройки программы : cabac=1 / ref=5 / deblock=1:0:0 / analyse=0x3:0x113 / me=umh / subme=8 / psy=1 / psy_rd=1.00:0.00 / mixed_ref=1 / me_range=16 / chroma_me=1 / trellis=2 / 8x8dct=1 / cqm=0 / deadzone=21,11 / fast_pskip=1 / chroma_qp_offset=-2 / threads=18 / lookahead_threads=3 / sliced_threads=0 / nr=0 / decimate=1 / interlaced=0 / bluray_compat=0 / constrained_intra=0 / bframes=3 / b_pyramid=2 / b_adapt=2 / b_bias=0 / direct=3 / weightb=1 / open_gop=0 / weightp=2 / keyint=240 / keyint_min=23 / scenecut=40 / intra_refresh=0 / rc_lookahead=50 / rc=crf / mbtree=1 / crf=18.0 / qcomp=0.60 / qpmin=0 / qpmax=69 / qpstep=4 / vbv_maxrate=62500 / vbv_bufsize=78125 / crf_max=0.0 / nal_hrd=none / filler=0 / ip_ratio=1.40 / aq=1:1.00
Default : Да
Forced : Нет
Цветовой диапазон : Limited
Коэффициенты матрицы : BT.709

Аудио #1
Идентификатор : 2
Формат : AC-3
Формат/Информация : Audio Coding 3
Коммерческое название : Dolby Digital
Идентификатор кодека : A_AC3
Продолжительность : 1 ч. 1 м.
Вид битрейта : Постоянный
Битрейт : 384 Кбит/сек
Каналы : 6 каналов
Channel layout : L R C LFE Ls Rs
Частота : 48,0 КГц
Частота кадров : 31,250 кадров/сек (1536 SPF)
Битовая глубина : 16 бит
Метод сжатия : С потерями
Размер потока : 170 Мбайт (13%)
Язык : Russian
ServiceKind/String : Complete Main
Default : Да
Forced : Нет

Аудио #2
Идентификатор : 3
Формат : E-AC-3
Формат/Информация : Enhanced AC-3
Коммерческое название : Dolby Digital Plus
Идентификатор кодека : A_EAC3
Продолжительность : 1 ч. 1 м.
Вид битрейта : Постоянный
Битрейт : 640 Кбит/сек
Каналы : 6 каналов
Channel layout : L R C LFE Ls Rs
Частота : 48,0 КГц
Частота кадров : 31,250 кадров/сек (1536 SPF)
Метод сжатия : С потерями
Размер потока : 283 Мбайт (22%)
Заголовок : English
Язык : English
ServiceKind/String : Complete Main
Default : Нет
Forced : Нет

Текст #1
Идентификатор : 4
Формат : UTF-8
Идентификатор кодека : S_TEXT/UTF8
Идентификатор кодека/Информация : UTF-8 Plain Text
Продолжительность : 1 ч. 0 м.
Битрейт : 72 бит/сек
ElementCount : 916
Размер потока : 32,4 Кбайт (0%)
Заголовок : English [SDH]
Язык : English
Default : Нет
Forced : Нет

Текст #2
Идентификатор : 5
Формат : UTF-8
Идентификатор кодека : S_TEXT/UTF8
Идентификатор кодека/Информация : UTF-8 Plain Text
Продолжительность : 59 м. 55 с.
Битрейт : 60 бит/сек
ElementCount : 744
Размер потока : 26,5 Кбайт (0%)
Заголовок : Castilian [Full]
Язык : Spanish
Default : Нет
Forced : Нет

Текст #3
Идентификатор : 6
Формат : UTF-8
Идентификатор кодека : S_TEXT/UTF8
Идентификатор кодека/Информация : UTF-8 Plain Text
Продолжительность : 59 м. 55 с.
Битрейт : 58 бит/сек
ElementCount : 744
Размер потока : 25,8 Кбайт (0%)
Заголовок : Spanish [Full]
Язык : Spanish
Default : Нет
Forced : Нет

Текст #4
Идентификатор : 7
Формат : UTF-8
Идентификатор кодека : S_TEXT/UTF8
Идентификатор кодека/Информация : UTF-8 Plain Text
Продолжительность : 59 м. 55 с.
Битрейт : 62 бит/сек
ElementCount : 778
Размер потока : 27,6 Кбайт (0%)
Заголовок : French [Full]
Язык : French
Default : Нет
Forced : Нет

Текст #5
Идентификатор : 8
Формат : UTF-8
Идентификатор кодека : S_TEXT/UTF8
Идентификатор кодека/Информация : UTF-8 Plain Text
Продолжительность : 59 м. 12 с.
Битрейт : 59 бит/сек
ElementCount : 776
Размер потока : 25,6 Кбайт (0%)
Заголовок : German [Full]
Язык : German
Default : Нет
Forced : Нет

Текст #6
Идентификатор : 9
Формат : UTF-8
Идентификатор кодека : S_TEXT/UTF8
Идентификатор кодека/Информация : UTF-8 Plain Text
Продолжительность : 59 м. 55 с.
Битрейт : 57 бит/сек
ElementCount : 723
Размер потока : 25,2 Кбайт (0%)
Заголовок : Italian [Full]
Язык : Italian
Default : Нет
Forced : Нет

Текст #7
Идентификатор : 10
Формат : UTF-8
Идентификатор кодека : S_TEXT/UTF8
Идентификатор кодека/Информация : UTF-8 Plain Text
Продолжительность : 58 м. 17 с.
Битрейт : 59 бит/сек
ElementCount : 766
Размер потока : 25,2 Кбайт (0%)
Заголовок : Portuguese [Full]
Язык : Portuguese
Default : Нет
Forced : Нет

Текст #8
Идентификатор : 11
Формат : UTF-8
Идентификатор кодека : S_TEXT/UTF8
Идентификатор кодека/Информация : UTF-8 Plain Text
Продолжительность : 58 м. 18 с.
Битрейт : 57 бит/сек
ElementCount : 778
Размер потока : 24,5 Кбайт (0%)
Заголовок : Brazilian Portuguese [Full]
Язык : Portuguese
Default : Нет
Forced : Нет

Текст #9
Идентификатор : 12
Формат : UTF-8
Идентификатор кодека : S_TEXT/UTF8
Идентификатор кодека/Информация : UTF-8 Plain Text
Продолжительность : 58 м. 17 с.
Битрейт : 62 бит/сек
ElementCount : 741
Размер потока : 26,7 Кбайт (0%)
Заголовок : Polish [Full]
Язык : Polish
Default : Нет
Forced : Нет

Текст #10
Идентификатор : 13
Формат : UTF-8
Идентификатор кодека : S_TEXT/UTF8
Идентификатор кодека/Информация : UTF-8 Plain Text
Продолжительность : 58 м. 17 с.
Битрейт : 61 бит/сек
ElementCount : 773
Размер потока : 26,1 Кбайт (0%)
Заголовок : Turkish [Full]
Язык : Turkish
Default : Нет
Forced : Нет

Текст #11
Идентификатор : 14
Формат : UTF-8
Идентификатор кодека : S_TEXT/UTF8
Идентификатор кодека/Информация : UTF-8 Plain Text
Продолжительность : 59 м. 57 с.
Битрейт : 58 бит/сек
ElementCount : 684
Размер потока : 25,7 Кбайт (0%)
Заголовок : Swedish [Full]
Язык : Swedish
Default : Нет
Forced : Нет

Текст #12
Идентификатор : 15
Формат : UTF-8
Идентификатор кодека : S_TEXT/UTF8
Идентификатор кодека/Информация : UTF-8 Plain Text
Продолжительность : 59 м. 55 с.
Битрейт : 55 бит/сек
ElementCount : 781
Размер потока : 24,4 Кбайт (0%)
Заголовок : Danish [Full]
Язык : Danish
Default : Нет
Forced : Нет

Текст #13
Идентификатор : 16
Формат : UTF-8
Идентификатор кодека : S_TEXT/UTF8
Идентификатор кодека/Информация : UTF-8 Plain Text
Продолжительность : 58 м. 17 с.
Битрейт : 53 бит/сек
ElementCount : 701
Размер потока : 23,0 Кбайт (0%)
Заголовок : Finnish [Full]
Язык : Finnish
Default : Нет
Forced : Нет

Текст #14
Идентификатор : 17
Формат : UTF-8
Идентификатор кодека : S_TEXT/UTF8
Идентификатор кодека/Информация : UTF-8 Plain Text
Продолжительность : 1 ч. 0 м.
Битрейт : 54 бит/сек
ElementCount : 752
Размер потока : 24,1 Кбайт (0%)
Заголовок : Dutch [Full]
Язык : Dutch
Default : Нет
Forced : Нет

Текст #15
Идентификатор : 18
Формат : UTF-8
Идентификатор кодека : S_TEXT/UTF8
Идентификатор кодека/Информация : UTF-8 Plain Text
Продолжительность : 59 м. 55 с.
Битрейт : 60 бит/сек
ElementCount : 756
Размер потока : 26,5 Кбайт (0%)
Заголовок : Norwegian [Full]
Язык : Norwegian
Default : Нет
Forced : Нет

Текст #16
Идентификатор : 19
Формат : UTF-8
Идентификатор кодека : S_TEXT/UTF8
Идентификатор кодека/Информация : UTF-8 Plain Text
Продолжительность : 58 м. 9 с.
Битрейт : 2 бит/сек
ElementCount : 19
Размер потока : 904 байт (0%)
Заголовок : Russian [Forced]
Язык : Russian
Default : Да
Forced : Да

Текст #17
Идентификатор : 20
Формат : UTF-8
Идентификатор кодека : S_TEXT/UTF8
Идентификатор кодека/Информация : UTF-8 Plain Text
Продолжительность : 58 м. 17 с.
Битрейт : 97 бит/сек
ElementCount : 777
Размер потока : 41,5 Кбайт (0%)
Заголовок : Russian [Full]
Язык : Russian
Default : Нет
Forced : Нет

Текст #18
Идентификатор : 21
Формат : UTF-8
Идентификатор кодека : S_TEXT/UTF8
Идентификатор кодека/Информация : UTF-8 Plain Text
Продолжительность : 58 м. 17 с.
Битрейт : 107 бит/сек
ElementCount : 796
Размер потока : 46,1 Кбайт (0%)
Заголовок : Greek [Full]
Язык : Greek
Default : Нет
Forced : Нет

Текст #19
Идентификатор : 22
Формат : UTF-8
Идентификатор кодека : S_TEXT/UTF8
Идентификатор кодека/Информация : UTF-8 Plain Text
Продолжительность : 58 м. 17 с.
Битрейт : 103 бит/сек
ElementCount : 778
Размер потока : 44,0 Кбайт (0%)
Заголовок : Hebrew [Full]
Язык : Hebrew
Default : Нет
Forced : Нет

Текст #20
Идентификатор : 23
Формат : UTF-8
Идентификатор кодека : S_TEXT/UTF8
Идентификатор кодека/Информация : UTF-8 Plain Text
Продолжительность : 59 м. 55 с.
Битрейт : 114 бит/сек
ElementCount : 739
Размер потока : 50,1 Кбайт (0%)
Заголовок : Arabic [Full]
Язык : Arabic
Default : Нет
Forced : Нет

Текст #21
Идентификатор : 24
Формат : UTF-8
Идентификатор кодека : S_TEXT/UTF8
Идентификатор кодека/Информация : UTF-8 Plain Text
Продолжительность : 58 м. 17 с.
Битрейт : 62 бит/сек
ElementCount : 774
Размер потока : 26,7 Кбайт (0%)
Заголовок : Romanian [Full]
Язык : Romanian
Default : Нет
Forced : Нет

Текст #22
Идентификатор : 25
Формат : UTF-8
Идентификатор кодека : S_TEXT/UTF8
Идентификатор кодека/Информация : UTF-8 Plain Text
Продолжительность : 58 м. 17 с.
Битрейт : 68 бит/сек
ElementCount : 780
Размер потока : 29,4 Кбайт (0%)
Заголовок : Indonesian [Full]
Язык : Indonesian
Default : Нет
Forced : Нет

Текст #23
Идентификатор : 26
Формат : UTF-8
Идентификатор кодека : S_TEXT/UTF8
Идентификатор кодека/Информация : UTF-8 Plain Text
Продолжительность : 58 м. 17 с.
Битрейт : 162 бит/сек
ElementCount : 780
Размер потока : 69,2 Кбайт (0%)
Заголовок : Thai [Full]
Язык : Thai
Default : Нет
Forced : Нет

Текст #24
Идентификатор : 27
Формат : UTF-8
Идентификатор кодека : S_TEXT/UTF8
Идентификатор кодека/Информация : UTF-8 Plain Text
Продолжительность : 59 м. 55 с.
Битрейт : 64 бит/сек
ElementCount : 785
Размер потока : 28,2 Кбайт (0%)
Заголовок : Korean [Full]
Язык : Korean
Default : Нет
Forced : Нет

Текст #25
Идентификатор : 28
Формат : UTF-8
Идентификатор кодека : S_TEXT/UTF8
Идентификатор кодека/Информация : UTF-8 Plain Text
Продолжительность : 58 м. 17 с.
Битрейт : 57 бит/сек
ElementCount : 781
Размер потока : 24,4 Кбайт (0%)
Заголовок : Chinese (Simplified) [Full]
Язык : Chinese
Default : Нет
Forced : Нет

Текст #26
Идентификатор : 29
Формат : UTF-8
Идентификатор кодека : S_TEXT/UTF8
Идентификатор кодека/Информация : UTF-8 Plain Text
Продолжительность : 58 м. 17 с.
Битрейт : 58 бит/сек
ElementCount : 781
Размер потока : 25,1 Кбайт (0%)
Заголовок : Chinese (Traditional) [Full]
Язык : Chinese
Default : Нет
Forced : Нет

Текст #27
Идентификатор : 30
Формат : UTF-8
Идентификатор кодека : S_TEXT/UTF8
Идентификатор кодека/Информация : UTF-8 Plain Text
Продолжительность : 1 ч. 0 м.
Битрейт : 53 бит/сек
ElementCount : 812
Размер потока : 24,0 Кбайт (0%)
Заголовок : Japanese [Full]
Язык : Japanese
Default : Нет
Forced : Нет

скриншот  скриншот  скриншот  
pb.wtf



Скачать Леденящие душу приключения Сабрины через торрент http://i96.fastpic.ru/big/2018/1029/4a/3853a909b32fb533f1fdda0b00553e4a.png Скачать фильм Леденящие душу приключения Сабрины через торрент бесплантно в хорошем качестве Описание: Обновленная приключений маленькой ведьмы Сабрины в виде тёмной истории взросления с элементами хоррора, оккультизма и ... 10 10 1
Торрент: Зарегистрирован [2018-12-01 13:47] · скачан: 56 раз
Статус: √ проверено
Размер: 10.34 GB
Как cкачать? Как скачать Леденящие душу приключения Сабрины через торрент | qTorrent

% Раздел Тема Автор DL S | L
Зарубежные сериалы [ 12.93 GB ] Леденящие душу Сабрины / Chilling Adventures of Sabrina / Сезон: 3 / Серии 1-8 из 8 [2020 WEBRip1080p] [MVO] killermax2013 Скачать
1 | 0
Зарубежные сериалы [ 14.81 GB ] Леденящие душу Сабрины / Chilling Adventures of Sabrina / Сезон: 3 / Серии: 1-8 из 8 [2020 WEB-DL 1080p] MVO [Jaskier] bober100 Скачать
1 | 0
Зарубежные сериалы [ 1.98 GB ] Леденящие душу Сабрины / Chilling Adventures of Sabrina / Сезон: 3 / Серии: 1- из 8 [2020 WEBRip 1080p] MVO [TVShows] bober100 Скачать
1 | 0
Зарубежные сериалы [ 30.4 GB ] Леденящие душу Сабрины / Chilling Adventures of Sabrina / Сезон: 3 / Серии 1-8 из 8 [2020 WEBRip 1080p] killermax2013 Скачать
1 | 0
Зарубежные сериалы [ 11.79 GB ] Леденящие душу Сабрины / Chilling Adventures of Sabrina / Сезон: 2 / Серии 1-9 из 9 [2019 WEBRip1080p] [MVO] killermax2013 Скачать
1 | 0
Зарубежные сериалы [ 18.62 GB ] Леденящие душу Сабрины / Chilling Adventures of Sabrina / Сезон: 1 / Серии 1-11 из 11 [2018 WEBRip1080p] [MVO] killermax2013 Скачать
1 | 0
Зарубежные сериалы [ 61.19 GB ] Леденящие душу Сабрины / Chilling Adventures of Sabrina / Сезон: 1-2 / Серии 1-20 из 20 [2018-2019 WEB-DL 1080p] [MVO] killermax2013 Скачать
1 | 0

28-11-2019 20:33  

Отключить всю рекламу на сайте

    Дорогой пользователь! Огромная просьба, поблагодарите релизера, оцените раздачу и оставьте свои комментарий, если Вы скачали Леденящие душу приключения Сабрины через торрент бесплатно! Внесите свою лепту в развитие PiratBit!
    Комментировать посты могут только пользователи прошедшие не сложную регистрацию
    Показать сообщения:    

    Леденящие душу приключения Сабрины через торрент
    Скачать бесплатно Леденящие душу приключения Сабрины
    Леденящие душу приключения Сабрины скачать торрент
    Леденящие душу приключения Сабрины смотреть онлайн
    Cкачать фильм Леденящие душу приключения Сабрины бесплатно
    Леденящие душу приключения Сабрины скачать торрент в хорошем качестве
    Леденящие душу приключения Сабрины смотреть онлайн бесплатно в хорошем качестве


    Вы не можете начинать темы
    Вы не можете отвечать на сообщения
    Вы не можете редактировать свои сообщения
    Вы не можете удалять свои сообщения
    Вы не можете голосовать в опросах
    Вы не можете прикреплять файлы к сообщениям
    Вы можете скачивать файлы