Ссылка на приватное зеркало нашего сайта всего за 1$. Внимание количество ограничено!!!

2 сезон

iTunes

1 сезон

1

2 сезон

2 сезон

iTunes

1 сезон

RePack

30

Новинка

ВАЖНО

ИГРА 18+

pack

RePack

MK11
pack

Забери бонус

RePack

jed

!!Акция!!

Alien_Rage

RePack

fifa19

RePack

Assassins Creed: Odyssey

RePack

NEED FOR SPEED™ PAYBACK

4 сезон

9 сезон

Бесстыжие 9 сезон

Все сериалы

все сериалы на PB.wtf

RePack

FAR CRY 5
  

Смертельное оружие / Lethal Weapon / Сезон: 3 / Серии: 1-15 из 15 (МакДжи, Стив Бойум) [2018, боевик, триллер, драма, WEBRip 1080p] MVO [BaibaKo] pb.wtf

Смертельное оружие через торрент pb.wtf

Размер: 35.32 GB | Добавлен: 1 год 8 мес. назад | Торрент скачан:2 раза
Скачать  

01-12-2018 14:56 Смертельное оружие Скачать торрент  


═╬ Смертельное оружие ╬═
Информация о фильме:

✦ Название: Смертельное оружие
✦ Оригинальное название: Lethal Weapon
✦ Год выхода: 2018
✦ Страна: США / Warner Bros. Television
✦ Жанр: боевик, триллер, драма, криминал
✦ Режиссер: МакДжи, Стив Бойум
✦ Продолжительность: ~ 00:43:00
✦ Перевод: Профессиональный (многоголосый) |
✦ Субтитры: отсутствуют

В ролях:

Клейн Кроуфорд, Дэймон Уайанс, Джордана Брюстер, Данте Браун, Джонатан Фернандес, Чандлер Кинни, Кевин Рам, Киша Шарп, Флориана Лима и др.


Описание:

Сюжет сосредоточится на копе из Техаса, который, потеряв жену и ребёнка, перебирается на службу в Лос-Анджелес. Там ему суждено стать напарником уже немолодого детектива, которому из-за недавнего инфаркта врачи прописали избегать стрессов. Но с новым коллегой, буквально лезущим под пули, сделать это будет попросту невозможно.

rating

Информация о файле:

✦ Качество: WEBRip 1080p
✦ Формат: MKV

✦ Видео: AVC High@L4 5078 Кбит/сек, 1920x1080 (1.778), 23.976 кадра/сек
✦ Аудио#1: ru: AC3, 640 Кбит/сек, 2 канала, 48,0 КГц
✦ Аудио#2: en: AC3, 384 Кбит/сек, 2 канала, 48,0 КГц
скриншот   скриншот   скриншот   скриншот   скриншот  

Общее
Уникальный идентификатор : 245960770034141111415090971201672484951 (0xB90A523B2AF737DBB5BDD9384FF69857)
Полное имя : D:\Lethal.Weapon.s03.HD1080p.WEBRip.Rus.Eng.BaibaKo.tv\Lethal.Weapon.s03e01.HD1080p.WEBRip.Rus.Eng.BaibaKo.tv.mkv
Формат : Matroska
Версия формата : Version 4 / Version 2
Размер файла : 1,91 Гбайт
Продолжительность : 44 м. 49 с.
Общий поток : 6104 Кбит/сек
Дата кодирования : UTC 2018-09-26 12:51:55
Программа кодирования : mkvmerge v9.3.1 ('Mask Machine') 64bit
Библиотека кодирования : libebml v1.3.4 + libmatroska v1.4.5

Видео
Идентификатор : 1
Формат : AVC
Формат/Информация : Advanced Video Codec
Профиль формата : High@L4
Параметр CABAC формата : Да
Параметр RefFrames формата : 4 кадра
Идентификатор кодека : V_MPEG4/ISO/AVC
Продолжительность : 44 м. 49 с.
Битрейт : 5078 Кбит/сек
Ширина : 1920 пикселей
Высота : 1080 пикселей
Соотношение сторон : 16:9
Режим частоты кадров : Постоянный
Частота кадров : 23,976 (24000/1001) кадра/сек
Цветовое пространство : YUV
Субдискретизация насыщенности : 4:2:0
Битовая глубина : 8 бит
Тип развёртки : Прогрессивная
Бит/(Пиксели*Кадры) : 0.102
Размер потока : 1,59 Гбайт (83%)
Библиотека кодирования : x264 core 152 r2851 ba24899
Настройки программы : cabac=1 / ref=3 / deblock=1:0:0 / analyse=0x3:0x113 / me=hex / subme=7 / psy=1 / psy_rd=1.00:0.00 / mixed_ref=1 / me_range=16 / chroma_me=1 / trellis=1 / 8x8dct=1 / cqm=0 / deadzone=21,11 / fast_pskip=1 / chroma_qp_offset=-2 / threads=30 / lookahead_threads=5 / sliced_threads=0 / nr=0 / decimate=1 / interlaced=0 / bluray_compat=0 / constrained_intra=0 / bframes=3 / b_pyramid=2 / b_adapt=1 / b_bias=0 / direct=1 / weightb=1 / open_gop=0 / weightp=2 / keyint=240 / keyint_min=23 / scenecut=40 / intra_refresh=0 / rc_lookahead=40 / rc=crf / mbtree=1 / crf=18.0 / qcomp=0.60 / qpmin=0 / qpmax=69 / qpstep=4 / ip_ratio=1.40 / aq=1:1.00
Default : Нет
Forced : Нет

Аудио #1
Идентификатор : 2
Формат : AC-3
Формат/Информация : Audio Coding 3
Расширение режима : CM (complete main)
Параметр Endianness формата : Big
Идентификатор кодека : A_AC3
Продолжительность : 44 м. 49 с.
Вид битрейта : Постоянный
Битрейт : 640 Кбит/сек
Каналы : 2 канала
Расположение каналов : Front: L R
Частота : 48,0 КГц
Частота кадров : 31,250 кадров/сек (1536 spf)
Метод сжатия : С потерями
Размер потока : 205 Мбайт (10%)
Язык : Russian
Default : Да
Forced : Нет

Аудио #2
Идентификатор : 3
Формат : AC-3
Формат/Информация : Audio Coding 3
Расширение режима : CM (complete main)
Параметр Endianness формата : Big
Идентификатор кодека : A_AC3
Продолжительность : 44 м. 49 с.
Вид битрейта : Постоянный
Битрейт : 384 Кбит/сек
Каналы : 2 канала
Расположение каналов : Front: L R
Частота : 48,0 КГц
Частота кадров : 31,250 кадров/сек (1536 spf)
Метод сжатия : С потерями
Размер потока : 123 Мбайт (6%)
Язык : English
Default : Нет
Forced : Нет

Когда раздача ведётся путём добавления новых серий, при каждом добавлении создётся новый торрент. Чтобы начать докачку новой серии, пользователям необходимо сделать следующее:
(1) остановить скачивание,
(2) удалить старый торрент у себя из клиента (старые серии удалять не надо),
(3) скачать новый торрент и запустить его у себя в клиенте вместо старого, при этом указать клиенту путь в старую папку, куда и должно происходить скачивание новых серий.
Ваш клиент при этом должен произвести хеширование (проверку) старой папки (если не производит сам - помогите ему сделать это), и будет докачивать только те серии, которых у вас ещё нет. Старые серии при этом не удаляются, а продолжают раздаваться!
Eсли вы уже удалили старые серии, то предотвратить повторную закачку старых серий можно, отжав галочку в соответсвующих местах при запуске нового торрента. По возможности, желательно не удалять старые серии как можно дольше, чтобы релизёр не столько продолжал раздавать старые серии, а смог сконцентрироваться на новых.
pb.wtf



Скачать Смертельное оружие через торрент http://img14.lostpic.net/2018/12/01/41c09809252fab400ebde3b41295e341.jpg Скачать фильм Смертельное оружие через торрент бесплантно в хорошем качестве Описание:Сюжет сосредоточится на копе из Техаса, который, потеряв жену и ребёнка, перебирается на службу в Лос-Анджелес. Там ему суждено ... 10 10 4
Info! Золотая раздача, скачанное не засчитывается.
Торрент: Зарегистрирован [2019-03-21 09:28] · скачан: 2 раз
Статус: √ проверено
Размер: 35.32 GB
Как cкачать? Как скачать Смертельное оружие через торрент | qTorrent

% Раздел Тема Автор DL S | L
Зарубежные сериалы [ 38.08 GB ] Смертельное оружие / Lethal Weapon / Сезон: 3 / Серии: 1-15 из 15 [2018 WEB-DL 1080p] MVO [LostFilm] bober100 Скачать
1 | 0
Зарубежные сериалы [ 8.09 GB ] Смертельное Оружие / Lethal Weapon / Сезон: 3 / Серии: 1-15 из 15 [2018-2019 WEB-DLRip] [MVO] killermax2013 Скачать
1 | 0
Зарубежные сериалы [ 8.24 GB ] Смертельное оружие / Lethal Weapon / Сезон: 3 / Серии: 1-15 из 15 [2018 WEB-DLRip] MVO [Newstudio] bober100 Скачать
1 | 0
Зарубежные сериалы [ 8.52 GB ] Смертельное оружие / Lethal Weapon / Сезон: 3 / Серии: 1-15 из 15 [2018 WEB-DLRip] MVO [LostFilm] bober100 Скачать
1 | 0
Зарубежные сериалы [ 36.92 GB ] Смертельное Оружие / Lethal Weapon / Сезон: 3 / Серии: 1-15 из 15 [2018 WEB-DL 1080p] [MVO] killermax2013 Скачать
1 | 0
Зарубежные сериалы [ 35.74 GB ] Смертельное оружие / Lethal Weapon / Сезон: 3 / Серии: 1-15 из 15 [2018 WEB-DL 1080p] MVO [Jaskier] bober100 Скачать
1 | 0
Зарубежные сериалы [ 15.52 GB ] Смертельное оружие / Lethal Weapon / Сезон: 3 / Серии: 1-15 из 15 [2018 WEB-DL 720p] MVO [Jaskier] bober100 Скачать
1 | 0


Последний раз редактировалось: bober100 (2019-03-21 09:28), всего редактировалось 5 раз(а)

28-11-2019 20:33  

Отключить всю рекламу на сайте

16-12-2018 12:41 Смертельное оружие Скачать торрент  

А чего с такими потугами новые серии выходят?pb.wtf



11-01-2019 08:19 Смертельное оружие Скачать торрент  

11 серия. РосНефть заказала сенатора США.
Пиз...утые!pb.wtf



    Дорогой пользователь! Огромная просьба, поблагодарите релизера, оцените раздачу и оставьте свои комментарий, если Вы скачали Смертельное оружие через торрент бесплатно! Внесите свою лепту в развитие PiratBit!
    Комментировать посты могут только пользователи прошедшие не сложную регистрацию
    Показать сообщения:    

    Смертельное оружие через торрент
    Скачать бесплатно Смертельное оружие
    Смертельное оружие скачать торрент
    Смертельное оружие смотреть онлайн
    Cкачать фильм Смертельное оружие бесплатно
    Смертельное оружие скачать торрент в хорошем качестве
    Смертельное оружие смотреть онлайн бесплатно в хорошем качестве


    Вы не можете начинать темы
    Вы не можете отвечать на сообщения
    Вы не можете редактировать свои сообщения
    Вы не можете удалять свои сообщения
    Вы не можете голосовать в опросах
    Вы не можете прикреплять файлы к сообщениям
    Вы можете скачивать файлы