новый адрес
Мега распродажа FORZA HORIZON 4 ULTIMATE+ВСЕ DLC+ОНЛАЙН всего за 499р. 349 руб. (супер цена). Внимание количество ограничено!!!

iTunes

1+1

iTunes

мы

iTunes

1

iTunes

Чернобыль

iTunes

Ральф против интернета

Лицензия

ПШазам

Лицензия

Игра престолов

Лицензия

30
pack

ВАЖНО

!!Акция!!

Alien_RageХит недели

RePack

Resident Evil 21

ИГРА 18+

pack

RePack

Metro:Exodus

!!Акция!!

Alien_Rage

RePack

fifa19

RePack

Assassins Creed: Odyssey

RePack

NEED FOR SPEED™ PAYBACK

3 сезон

9 сезон

Бесстыжие 9 сезон

Все сериалы

все сериалы на PB.wtf

RePack

FAR CRY 5
Ребята, катастрофически не хватает 1900р. для оплаты серверов за Октябрь (всвязи с блокировками трафик упал в 3 раза), 1-2р., выручайте.
  

Любовь по ошибке (Дмитрий Магонов) [2018 г., Мелодрама, WEB-DLRip, Не требуется Русский] pb.wtf

Любовь по ошибке через торрент pb.wtf

Размер: 1.37 GB | Добавлен: 11 мес. назад | Торрент скачан:79 раз
Скачать  

01-12-2018 15:57 Любовь по ошибке Скачать торрент  

Любовь по ошибке
Год выпуска: 2018
Страна: Россия
Жанр: Мелодрама
Продолжительность: 01:31:23
Перевод: Не требуется Русский
Субтитры: Отсутствуют

Режиссер: Дмитрий Магонов



В ролях: Ольга Иванова, Макар Запорожский, София Магонова, Дарья Фекленко, Юлия Франц

Описание: Лена — молодая девушка, которая не умеет постоять за себя. Она работает кассиром в магазине и одна растит дочку Асю, еле сводя концы с концами. И вот когда на Лену разом наваливаются все проблемы — и с дочкой в садике, и с работой, даже с соседкой — подруга уговаривает ее пойти к психологу, чтобы научиться справляться с жизненными трудностями. Отчаявшаяся Лена идет на прием. Но в кабинете вместо психолога оказывается совершенно посторонний человек — Виктор. Растерявшись, мужчина начинает слушать сбивчивый рассказ заплаканной Лены. Когда Виктор понимает, что она приняла его за психолога, то уже не решается сказать правду…

Качество: WEB-DLRip
Формат: AVI
Видео кодек: XviD
Аудио кодек: AC3
Видео: Xvid, 720x400 (16:9), ~1945 Kbps
Аудио#1: AC3, 2 ch, 192 Kbps
скриншот   скриншот   скриншот   скриншот  

бщее
Полное имя : D:\Любовь по ошибке (2018).by.Алехаndr.avi
Формат : AVI
Формат/Информация : Audio Video Interleave
Профиль формата : OpenDML
Размер файла : 1,37 Гбайт
Продолжительность : 1 ч. 31 м.
Общий поток : 2151 Кбит/сек
Программа кодирования : Lavf58.12.100

Видео
Идентификатор : 0
Формат : xvid
Идентификатор кодека : xvid
Продолжительность : 1 ч. 31 м.
Битрейт : 1946 Кбит/сек
Ширина : 720 пикселей
Высота : 400 пикселей
Соотношение сторон : 16:9
Частота кадров : 25,000 кадров/сек
Тип развёртки : Прогрессивная
Бит/(Пиксели*Кадры) : 0.270
Размер потока : 1,24 Гбайт (90%)

Аудио
Идентификатор : 1
Формат : AC-3
Формат/Информация : Audio Coding 3
Коммерческое название : Dolby Digital
Идентификатор кодека : 2000
Продолжительность : 1 ч. 31 м.
Вид битрейта : Постоянный
Битрейт : 192 Кбит/сек
Каналы : 2 канала
Channel layout : L R
Частота : 48,0 КГц
Частота кадров : 31,250 кадров/сек (1536 SPF)
Битовая глубина : 16 бит
Метод сжатия : С потерями
Размер потока : 126 Мбайт (9%)
Выравнивание : Соединение по промежуткам
Продолжительность промежутка : 32 мс. (0,80

pb.wtf



Скачать Любовь по ошибке через торрент http://pic1.kartinco.top/images/11/5xbwf.jpg Скачать фильм Любовь по ошибке через торрент бесплантно в хорошем качестве Описание: Лена — молодая девушка, которая не умеет постоять за себя. Она работает кассиром в магазине и одна растит дочку Асю, еле сводя ... 8.2 10 5
Торрент: Зарегистрирован [2018-12-01 15:57] · скачан: 79 раз
Статус: √ проверено
Размер: 1.37 GB
Как cкачать? Как скачать Любовь по ошибке через торрент | qTorrent

% Раздел Тема Автор DL S | L
Наши новые фильмы 2018-2019 [ 700 MB ] Любовь по ошибке [2018 Мело WEB-DLRip ] Sherif Скачать
1 | 0
Наши новые фильмы 2018-2019 [ 1.38 GB ] Любовь по ошибке [2018 Мело SATRip] bober100 Скачать
1 | 0


>> Регистрируемся здесь <<






Отзывы и комментарии о схеме читаем и пишем здесь: ---> Отзывы и комментарии о схеме

Новые благодарочки в телеграм довольных пользователей:
скриншот   скриншот   скриншот   скриншот   скриншот
    Дорогой пользователь! Огромная просьба, поблагодарите релизера, оцените раздачу и оставьте свои комментарий, если Вы скачали Любовь по ошибке через торрент бесплатно! Внесите свою лепту в развитие PiratBit!
    Комментировать посты могут только пользователи прошедшие не сложную регистрацию
    Показать сообщения:    

    Любовь по ошибке через торрент
    Скачать бесплатно Любовь по ошибке
    Любовь по ошибке скачать торрент
    Любовь по ошибке смотреть онлайн
    Cкачать фильм Любовь по ошибке бесплатно
    Любовь по ошибке скачать торрент в хорошем качестве
    Любовь по ошибке смотреть онлайн бесплатно в хорошем качестве


    Вы не можете начинать темы
    Вы не можете отвечать на сообщения
    Вы не можете редактировать свои сообщения
    Вы не можете удалять свои сообщения
    Вы не можете голосовать в опросах
    Вы не можете прикреплять файлы к сообщениям
    Вы можете скачивать файлы