MEGA SALE -50% FORZA HORIZON 4 ULTIMATE+ВСЕ DLC+ОНЛАЙН всего за 599р. 299 руб. (супер цена). Внимание количество ограничено!!!

iTunes

1+1

iTunes

мы

iTunes

1

iTunes

Чернобыль

iTunes

Ральф против интернета

Лицензия

ПШазам

Лицензия

Игра престолов

Лицензия

30
pack

ВАЖНО

!!Акция!!

Alien_RageХит недели

RePack

Resident Evil 21

ИГРА 18+

pack

RePack

Metro:Exodus

!!Акция!!

Alien_Rage

RePack

fifa19

RePack

Assassins Creed: Odyssey

RePack

NEED FOR SPEED™ PAYBACK

3 сезон

9 сезон

Бесстыжие 9 сезон

Все сериалы

все сериалы на PB.wtf

RePack

FAR CRY 5
Ребята, катастрофически не хватает 7730р. для оплаты серверов за АВГУСТ (всвязи с блокировками трафик упал в 3 раза), 1-2р., выручайте.
  

Суперсемейка 2 / Incredibles 2 (Брэд Берд) [2018, Мультфильм, фантастика, боевик, комедия, приключения, семейный, UHD BDRip 2160p] DUB (rus, ukr) [Лицензия] pb.wtf

Суперсемейка 2 через торрент pb.wtf

Размер: 8.45 GB | Добавлен: 9 мес. назад | Торрент скачан:69 раз
Скачать  

01-12-2018 17:38 Суперсемейка 2 Скачать торрент  

Суперсемейка 2 / Incredibles 2
Год выпуска: 2018
Страна: США
Жанр: Мультфильм, фантастика, боевик, комедия, приключения, семейный
Продолжительность: 01:57:50
Перевод: Дублированный | Лицензия
Субтитры: Русские (Forced, full, SDH), английские

Режиссер: Брэд Берд

rating

В ролях:

Крэйг Т. Нельсон (Bob Parr / Mr. Incredible, озвучка), Холли Хантер (Helen Parr / Elastigirl, озвучка), Сара Вауэлл (Violet Parr, озвучка), Хак Милнер (Dashiell Parr (Dash), озвучка), Кэтрин Кинер (Evelyn Deavor, озвучка), Илай Фучиле (Jack-Jack Parr, озвучка), Боб Оденкёрк (Winston Deavor, озвучка), Сэмюэл Л. Джексон (Lucius Best / Frozone, озвучка), Майкл Бёрд (Tony Rydinger, озвучка), София Буш (Voyd, озвучка), Брэд Бёрд (Edna Mode (E), озвучка), Фил ЛаМарр (Krushauer / Helectrix, озвучка)
Описание:

После событий первой части суперсемейка пользуется повышенным вниманием со стороны журналистов. Неожиданно оказалось, что обаятельная Миссис Исключительная гораздо лучше смотрится на экране телевизора, чем её муж. Мистеру Исключительному все чаще приходится сидеть дома и приглядывать за детьми, у каждого из которых есть свои причины быть недовольным собственными суперспособностями. Однако семейным проблемам предстоит отступить на второй план, когда окажется, что спокойствию Суперсемейки угрожает новый могущественный враг.

Качество: UHD BDRip 2160p
Формат: MKV

Видео: HEVC HDR, 8795 Кбит/c, 3840x1608, 23.976 Кадр/с, 10 bit
Аудио#1: Русский / AC3 / 48 KHz / 5.1 ch / 640 Kbps (Дубляж - Лицензия)
Аудио#2: Украинский / AC3 / 48 KHz / 2 ch / 192 Kbps (Дубляж - iTunes)
Аудио#3: Английский / AC3 / 48 KHz / 5.1 ch / 640 Kbps (Original)
скриншот  скриншот  скриншот  

Общее
Уникальный идентификатор : 223693973513029558319648364395373276576 (0xA849E46701F089BF95915873BA982DA0)
Полное имя : D:\Incredibles.2.2018.2160p.BDRip.10bit.HEVC.HDR.4K.x265.Master5.mkv
Формат : Matroska
Версия формата : Version 4 / Version 2
Размер файла : 8,45 Гбайт
Продолжительность : 1 ч. 57 м.
Общий поток : 10,3 Мбит/сек
Название фильма : Incredibles.2.2018.2160p.BDRip.10bit.HEVC.HDR.4K.x265.Master5
Дата кодирования : UTC 2018-12-01 15:31:44
Программа кодирования : mkvmerge v7.9.0 ('Birds') 64bit
Библиотека кодирования : libebml v1.3.1 + libmatroska v1.4.2
Обложка : Yes
Attachments : cover.jpg

Видео
Идентификатор : 1
Формат : HEVC
Формат/Информация : High Efficiency Video Coding
Профиль формата : Main 10@L5.1@High
Идентификатор кодека : V_MPEGH/ISO/HEVC
Продолжительность : 1 ч. 57 м.
Битрейт : 8795 Кбит/сек
Ширина : 3840 пикселей
Высота : 1608 пикселей
Соотношение сторон : 2,40:1
Режим частоты кадров : Постоянный
Частота кадров : 23,976 (24000/1001) кадра/сек
Цветовое пространство : YUV
Субдискретизация насыщенности : 4:2:0 (Type 2)
Битовая глубина : 10 бит
Бит/(Пиксели*Кадры) : 0.058
Размер потока : 7,07 Гбайт (84%)
Заголовок : Incredibles.2.2018.2160p.BDRip.10bit.HEVC.HDR.4K.x265.Master5
Библиотека кодирования : x265 2.8+58-d17bc7714ed2:[Windows][GCC 8.2.0][64 bit] 10bit
Настройки программы : cpuid=1111039 / frame-threads=5 / numa-pools=36 / wpp / no-pmode / no-pme / no-psnr / no-ssim / log-level=2 / input-csp=1 / input-res=3840x1608 / interlace=0 / total-frames=169514 / level-idc=51 / high-tier=1 / uhd-bd=0 / ref=4 / no-allow-non-conformance / repeat-headers / annexb / aud / hrd / info / hash=0 / no-temporal-layers / no-open-gop / min-keyint=24 / keyint=240 / gop-lookahead=0 / bframes=4 / b-adapt=2 / b-pyramid / bframe-bias=0 / rc-lookahead=25 / lookahead-slices=4 / scenecut=40 / radl=0 / no-intra-refresh / ctu=64 / min-cu-size=8 / rect / no-amp / max-tu-size=32 / tu-inter-depth=1 / tu-intra-depth=1 / limit-tu=0 / rdoq-level=2 / dynamic-rd=0.00 / no-ssim-rd / signhide / no-tskip / nr-intra=0 / nr-inter=0 / no-constrained-intra / no-strong-intra-smoothing / max-merge=3 / limit-refs=3 / limit-modes / me=3 / subme=3 / merange=57 / temporal-mvp / weightp / no-weightb / no-analyze-src-pics / deblock=-3:-3 / no-sao / no-sao-non-deblock / rd=4 / no-early-skip / rskip / no-fast-intra / no-tskip-fast / no-cu-lossless / no-b-intra / no-splitrd-skip / rdpenalty=0 / psy-rd=2.00 / psy-rdoq=1.00 / no-rd-refine / no-lossless / cbqpoffs=0 / crqpoffs=0 / rc=crf / crf=17.0 / qcomp=0.60 / qpstep=4 / stats-write=0 / stats-read=0 / vbv-maxrate=160000 / vbv-bufsize=160000 / vbv-init=0.9 / crf-max=0.0 / crf-min=0.0 / ipratio=1.40 / pbratio=1.30 / aq-mode=1 / aq-strength=1.00 / cutree / zone-count=0 / no-strict-cbr / qg-size=32 / no-rc-grain / qpmax=69 / qpmin=0 / no-const-vbv / sar=1 / overscan=0 / videoformat=5 / range=0 / colorprim=9 / transfer=16 / colormatrix=9 / chromaloc=1 / chromaloc-top=2 / chromaloc-bottom=2 / display-window=0 / master-display=G(13250,34500)B(7500,3000)R(34000,16000)WP(15635,16450)L(10000000,0) / max-cll=0,0 / min-luma=0 / max-luma=1023 / log2-max-poc-lsb=8 / vui-timing-info / vui-hrd-info / slices=1 / no-opt-qp-pps / no-opt-ref-list-length-pps / no-multi-pass-opt-rps / scenecut-bias=0.05 / no-opt-cu-delta-qp / no-aq-motion / hdr / hdr-opt / no-dhdr10-opt / no-idr-recovery-sei / analysis-reuse-level=5 / scale-factor=0 / refine-intra=0 / refine-inter=0 / refine-mv=0 / no-limit-sao / ctu-info=0 / no-lowpass-dct / refine-mv-type=0 / copy-pic=1 / max-ausize-factor=1.0 / no-dynamic-refine / no-single-sei
Default : Да
Forced : Нет
Цветовой диапазон : Limited
Основные цвета : BT.2020
Характеристики трансфера : SMPTE ST 2084
Коэффициенты матрицы : BT.2020 non-constant
MasteringDisplay_ColorPrimaries : R: x=0.680000 y=0.320000, G: x=0.265000 y=0.690000, B: x=0.150000 y=0.060000, White point: x=0.312700 y=0.329000
MasteringDisplay_Luminance : min: 0.0000 cd/m2, max: 1000.0000 cd/m2

Аудио #1
Идентификатор : 2
Формат : AC-3
Формат/Информация : Audio Coding 3
Расширение режима : CM (complete main)
Параметр Endianness формата : Big
Идентификатор кодека : A_AC3
Продолжительность : 1 ч. 57 м.
Вид битрейта : Постоянный
Битрейт : 640 Кбит/сек
Каналы : 6 каналов
Расположение каналов : Front: L C R, Side: L R, LFE
Частота : 48,0 КГц
Частота кадров : 31,250 кадров/сек (1536 spf)
Метод сжатия : С потерями
Размер потока : 539 Мбайт (6%)
Заголовок : Dub License
Язык : Russian
Default : Да
Forced : Да

Аудио #2
Идентификатор : 3
Формат : AC-3
Формат/Информация : Audio Coding 3
Расширение режима : CM (complete main)
Параметр Endianness формата : Big
Идентификатор кодека : A_AC3
Продолжительность : 1 ч. 57 м.
Вид битрейта : Постоянный
Битрейт : 192 Кбит/сек
Каналы : 2 канала
Расположение каналов : Front: L R
Частота : 48,0 КГц
Частота кадров : 31,250 кадров/сек (1536 spf)
Метод сжатия : С потерями
Размер потока : 162 Мбайт (2%)
Заголовок : Дубляж
Язык : Ukrainian
Default : Нет
Forced : Нет

Аудио #3
Идентификатор : 4
Формат : AC-3
Формат/Информация : Audio Coding 3
Расширение режима : CM (complete main)
Параметр Endianness формата : Big
Идентификатор кодека : A_AC3
Продолжительность : 1 ч. 57 м.
Вид битрейта : Постоянный
Битрейт : 640 Кбит/сек
Каналы : 6 каналов
Расположение каналов : Front: L C R, Side: L R, LFE
Частота : 48,0 КГц
Частота кадров : 31,250 кадров/сек (1536 spf)
Метод сжатия : С потерями
Размер потока : 539 Мбайт (6%)
Заголовок : Original
Язык : English
Default : Нет
Forced : Нет

Текст #1
Идентификатор : 5
Формат : UTF-8
Идентификатор кодека : S_TEXT/UTF8
Идентификатор кодека/Информация : UTF-8 Plain Text
Заголовок : Форсированные
Язык : Russian
Default : Да
Forced : Нет

Текст #2
Идентификатор : 6
Формат : UTF-8
Идентификатор кодека : S_TEXT/UTF8
Идентификатор кодека/Информация : UTF-8 Plain Text
Заголовок : Полные
Язык : Russian
Default : Нет
Forced : Нет

Текст #3
Идентификатор : 7
Формат : UTF-8
Идентификатор кодека : S_TEXT/UTF8
Идентификатор кодека/Информация : UTF-8 Plain Text
Заголовок : SDH
Язык : Russian
Default : Нет
Forced : Нет

Текст #4
Идентификатор : 8
Формат : UTF-8
Идентификатор кодека : S_TEXT/UTF8
Идентификатор кодека/Информация : UTF-8 Plain Text
Заголовок : Форсированные
Язык : Ukrainian
Default : Нет
Forced : Нет

Текст #5
Идентификатор : 9
Формат : UTF-8
Идентификатор кодека : S_TEXT/UTF8
Идентификатор кодека/Информация : UTF-8 Plain Text
Заголовок : Full
Язык : English
Default : Нет
Forced : Нет

Текст #6
Идентификатор : 10
Формат : UTF-8
Идентификатор кодека : S_TEXT/UTF8
Идентификатор кодека/Информация : UTF-8 Plain Text
Заголовок : SDH
Язык : English
Default : Нет
Forced : Нет

Меню
00:00:00.000 : : 1. Tony Interrogation
00:03:22.326 : : 2. Incredibles vs Underminer
00:08:53.615 : : 3. Chewed Out
00:09:36.783 : : 4. Family Dinner
00:13:38.274 : : 5. Poolside
00:15:44.735 : : 6. Deavor Meets Supers
00:21:19.736 : : 7. Pillow Talk
00:23:28.280 : : 8. New House
00:27:08.792 : : 9. Where's Mom?
00:28:59.569 : : 10. Runaway Train
00:35:10.900 : : 11. Raccoon Fight
00:39:07.844 : : 12. Helen Checks in
00:42:43.893 : : 13. Tony Forgets
00:43:42.411 : : 14. Air Rescue
00:47:35.351 : : 15. Breakfast Blowup
00:48:53.887 : : 16. Triumph Return
00:54:15.585 : : 17. Vi Embarrassed
00:56:16.038 : : 18. Tracking Screenslaver
01:00:58.695 : : 19. Screenslaver Caught
01:02:01.884 : : 20. Breaking Point
01:06:55.510 : : 21. E the Babysitter
01:09:18.235 : : 22. Helen Reviews Footage
01:11:28.199 : : 23. Bob's Apology
01:12:37.685 : : 24. Helen Slips Away
01:14:39.265 : : 25. Auntie E
01:18:00.966 : : 26. Cold Room
01:20:32.534 : : 27. House Attack
01:25:01.929 : : 28. Kids Alone
01:27:59.439 : : 29. Super Signing
01:31:53.923 : : 30. Kids to the Rescue
01:33:26.432 : : 31. Trap is Sprung
01:36:25.237 : : 32. Battle Royale
01:37:45.192 : : 33. Save the Day
01:43:56.895 : : 34. Resolution
01:45:35.912 : : 35. Epilogue
01:47:30.902 : : 36. End Credits

pb.wtf



Скачать Суперсемейка 2 через торрент http://img11.lostpic.net/2018/11/08/60ec31a46d17be3e1271b0dd966de1c3.jpg Скачать фильм Суперсемейка 2 через торрент бесплантно в хорошем качестве Описание: После событий первой части суперсемейка пользуется повышенным вниманием со стороны журналистов. Неожиданно оказалось, что ... 10 10 3
Торрент: Зарегистрирован [2018-12-01 17:38] · скачан: 69 раз
Статус: √ проверено
Размер: 8.45 GB
Как cкачать? Как скачать Суперсемейка 2 через торрент | qTorrent

% Раздел Тема Автор DL S | L
Ultra HD (UHD: 2K, 4K, 8K) [ 21.18 GB ] Суперсемейка 2 / Incredibles 2 [2018 Мультфильм UHD BDRip 2160p] [SDR] DUB [] bober100 Скачать
1 | 0
3D Мультфильмы [ 7.8 GB ] Суперсемейка 2 3Д / Incredibles 2 3D [2018 Мультфильм BDRip 1080p] [Half OverUnder / Вертикальная анаморфная стереопара] DUB [] bober100 Скачать
2 | 0
3D Мультфильмы [ 14.42 GB ] Суперсемейка 2 в 3Д / Incredibles 2 3D [2018 мультфильм приключен BDRip 1080p] OverUnder / Вертикальная стереопара serega768 Скачать
1 | 1
Иностранные мультфильмы [ 2.32 GB ] Суперсемейка 2 / Incredibles 2 [2018 Мультфильм BDRip-AVC] DUB [] - ExKinoRay Enigma2010 Скачать
4 | 0
Зарубежные Мультфильмы (BDRip 1080p, 720p, Blu-ray, BD-Remux) [ 6.12 GB ] Суперсемейка 2 / Incredibles 2 [2018 Мультфильм BDRip-HEVC 1080p ] DUB [] bober100 Скачать
4 | 0
Зарубежные Мультфильмы (BDRip 1080p, 720p, Blu-ray, BD-Remux) [ 24.05 GB ] Суперсемейка 2 / Incredibles 2 [2018 Мультфильм BD Remux 1080p] [2D 3D] DUB [] bober100 Скачать
1 | 0
Зарубежные Мультфильмы (BDRip 1080p, 720p, Blu-ray, BD-Remux) [ 20.13 GB ] Суперсемейка 2 / Incredibles 2 [2018 Мультфильм BD Remux 1080p] DUB [] bober100 Скачать
1 | 0


>> Регистрируемся здесь <<






Отзывы и комментарии о схеме читаем и пишем здесь: ---> Отзывы и комментарии о схеме

Новые благодарочки в телеграм довольных пользователей:
скриншот   скриншот   скриншот   скриншот   скриншот
    Дорогой пользователь! Огромная просьба, поблагодарите релизера, оцените раздачу и оставьте свои комментарий, если Вы скачали Суперсемейка 2 через торрент бесплатно! Внесите свою лепту в развитие PiratBit!
    Комментировать посты могут только пользователи прошедшие не сложную регистрацию
    Показать сообщения:    

    Суперсемейка 2 через торрент
    Скачать бесплатно Суперсемейка 2
    Суперсемейка 2 скачать торрент
    Суперсемейка 2 смотреть онлайн
    Cкачать фильм Суперсемейка 2 бесплатно
    Суперсемейка 2 скачать торрент в хорошем качестве
    Суперсемейка 2 смотреть онлайн бесплатно в хорошем качестве


    Вы не можете начинать темы
    Вы не можете отвечать на сообщения
    Вы не можете редактировать свои сообщения
    Вы не можете удалять свои сообщения
    Вы не можете голосовать в опросах
    Вы не можете прикреплять файлы к сообщениям
    Вы можете скачивать файлы