Ребята, если до конца года каждый наш пользователь пожертвует хотя бы 10 рублей, нам хватит денег оплатить все наши расходы.

iTunes

iTunes

Миссия невыполнима: Последствия

iTunes

Поиск

4 сезон

дом

MVO

venom

iTunes

Багровая мята

iTunes

Проклятие монахини

iTunes

Человек на Луне Хит недели

ИГРА 18+

pack

RePack

Battlefield V Хит недели

RePack

Assassins Creed: Odyssey
pack

RePack

Darksiders 3

iTunes 4K

Миссия невыполнима: Последствия

RePack

fifa19

!!Акция!!

Alien_RageХит недели

RePack

NEED FOR SPEED™ PAYBACK

SATRip

9 сезон

Бесстыжие 9 сезон

Все сериалы

все сериалы на PB.wtf

iTunes

Мэнди

RePack

FAR CRY 5
  

Суперсемейка 2 / Incredibles 2 (Брэд Берд) [2018, Мультфильм, фантастика, боевик, комедия, приключения, семейный, BDRip-HEVC 1080p, (10bit)] DUB [Лицензия]

Суперсемейка 2 через торрент

Раздают: 2 [ 0 KB/s ]
Размер: 6.12 GB | Добавлен: 15 д. назад | Торрент скачан:103 раза
Скачать  

01-12-2018 18:04 Суперсемейка 2 Скачать торрент  

Суперсемейка 2 / Incredibles 2
Год выпуска: 2018
Страна: США
Жанр: Мультфильм, фантастика, боевик, комедия, приключения, семейный
Продолжительность: 01:57:50
Перевод: Дублированный | Лицензия
Субтитры: Русские, английские, украинские

Режиссер: Брэд Берд

rating

В ролях:

Крэйг Т. Нельсон, Холли Хантер, Сара Вауэлл, Хак Милнер, Кэтрин Кинер, Илай Фучиле, Боб Оденкёрк, Сэмюэл Л. Джексон, Майкл Бёрд, София Буш

Описание:

После событий первой части суперсемейка пользуется повышенным вниманием со стороны журналистов. Неожиданно оказалось, что обаятельная Миссис Исключительная гораздо лучше смотрится на экране телевизора, чем её муж. Мистеру Исключительному все чаще приходится сидеть дома и приглядывать за детьми, у каждого из которых есть свои причины быть недовольным собственными суперспособностями. Однако семейным проблемам предстоит отступить на второй план, когда окажется, что спокойствию Суперсемейки угрожает новый могущественный враг.

Качество: BDRip-HEVC 1080p
Формат: MKV

Видео: HEVC, 5962 Кбит/с, 1920x804, 10 bit
Аудио#1: Русский / AC3 / 48 KHz / 5.1 ch / 640 Kbps (Дубляж - Лицензия)
Аудио#2: Украинский / AC3 / 48 KHz / 2 ch / 192 Kbps (Дубляж - iTunes)
Аудио#3: Английский / AC3 / 48 KHz / 5.1 ch / 640 Kbps (Original)
скриншот  скриншот  скриншот  

Общее
Уникальный идентификатор : 186606622818588028780734792116544770012 (0x8C6320D659BB6FF68AE7C56E6C988FDC)
Полное имя : D:\Incredibles.2.2018.BDRip.10bit.HEVC.x265.Master5.mkv
Формат : Matroska
Версия формата : Version 4 / Version 2
Размер файла : 6,12 Гбайт
Продолжительность : 1 ч. 57 м.
Общий поток : 7437 Кбит/сек
Название фильма : Incredibles.2.2018.BDRip.10bit.HEVC.x265.Master5
Дата кодирования : UTC 2018-12-01 14:06:31
Программа кодирования : mkvmerge v7.9.0 ('Birds') 64bit
Библиотека кодирования : libebml v1.3.1 + libmatroska v1.4.2
Обложка : Yes
Attachments : cover.jpg

Видео
Идентификатор : 1
Формат : HEVC
Формат/Информация : High Efficiency Video Coding
Профиль формата : Main 10@L4.1@High
Идентификатор кодека : V_MPEGH/ISO/HEVC
Продолжительность : 1 ч. 57 м.
Битрейт : 5962 Кбит/сек
Ширина : 1920 пикселей
Высота : 804 пикселя
Соотношение сторон : 2,40:1
Режим частоты кадров : Постоянный
Частота кадров : 23,976 (24000/1001) кадра/сек
Цветовое пространство : YUV
Субдискретизация насыщенности : 4:2:0
Битовая глубина : 10 бит
Бит/(Пиксели*Кадры) : 0.157
Размер потока : 4,79 Гбайт (78%)
Заголовок : Incredibles.2.2018.BDRip.10bit.HEVC.x265.Master5
Библиотека кодирования : x265 2.8+74-fd517ae68f93:[Windows][GCC 7.3.0][64 bit] 10bit
Настройки программы : cpuid=1049583 / frame-threads=5 / numa-pools=4 / wpp / no-pmode / no-pme / no-psnr / no-ssim / log-level=3 / input-csp=1 / input-res=1920x804 / interlace=0 / total-frames=0 / level-idc=41 / high-tier=1 / uhd-bd=0 / ref=5 / allow-non-conformance / no-repeat-headers / annexb / no-aud / no-hrd / info / hash=0 / no-temporal-layers / open-gop / min-keyint=24 / keyint=240 / gop-lookahead=0 / bframes=8 / b-adapt=2 / b-pyramid / bframe-bias=0 / rc-lookahead=40 / lookahead-slices=5 / scenecut=40 / radl=0 / no-intra-refresh / ctu=64 / min-cu-size=8 / no-rect / no-amp / max-tu-size=32 / tu-inter-depth=1 / tu-intra-depth=1 / limit-tu=0 / rdoq-level=0 / dynamic-rd=0.00 / no-ssim-rd / signhide / no-tskip / nr-intra=0 / nr-inter=0 / no-constrained-intra / strong-intra-smoothing / max-merge=2 / limit-refs=3 / no-limit-modes / me=3 / subme=7 / merange=57 / temporal-mvp / weightp / no-weightb / no-analyze-src-pics / deblock=-3:-3 / no-sao / no-sao-non-deblock / rd=3 / no-early-skip / rskip / no-fast-intra / no-tskip-fast / no-cu-lossless / no-b-intra / no-splitrd-skip / rdpenalty=0 / psy-rd=2.00 / psy-rdoq=0.00 / no-rd-refine / no-lossless / cbqpoffs=0 / crqpoffs=0 / rc=crf / crf=16.0 / qcomp=0.60 / qpstep=4 / stats-write=0 / stats-read=0 / vbv-maxrate=50000 / vbv-bufsize=50000 / vbv-init=0.9 / crf-max=0.0 / crf-min=0.0 / ipratio=1.40 / pbratio=1.30 / aq-mode=1 / aq-strength=1.00 / cutree / zone-count=0 / no-strict-cbr / qg-size=32 / no-rc-grain / qpmax=69 / qpmin=0 / no-const-vbv / sar=1 / overscan=0 / videoformat=5 / range=0 / colorprim=1 / transfer=1 / colormatrix=1 / chromaloc=0 / display-window=0 / max-cll=0,0 / min-luma=0 / max-luma=1023 / log2-max-poc-lsb=8 / vui-timing-info / vui-hrd-info / slices=1 / no-opt-qp-pps / no-opt-ref-list-length-pps / no-multi-pass-opt-rps / scenecut-bias=0.05 / no-opt-cu-delta-qp / no-aq-motion / no-hdr / no-hdr-opt / no-dhdr10-opt / no-idr-recovery-sei / analysis-reuse-level=5 / scale-factor=0 / refine-intra=0 / refine-inter=0 / refine-mv=0 / no-limit-sao / ctu-info=0 / no-lowpass-dct / refine-mv-type=0 / copy-pic=1 / max-ausize-factor=1.0 / no-dynamic-refine / no-single-sei
Язык : English
Default : Да
Forced : Нет
Цветовой диапазон : Limited
Основные цвета : BT.709
Характеристики трансфера : BT.709
Коэффициенты матрицы : BT.709

Аудио #1
Идентификатор : 2
Формат : AC-3
Формат/Информация : Audio Coding 3
Расширение режима : CM (complete main)
Параметр Endianness формата : Big
Идентификатор кодека : A_AC3
Продолжительность : 1 ч. 57 м.
Вид битрейта : Постоянный
Битрейт : 640 Кбит/сек
Каналы : 6 каналов
Расположение каналов : Front: L C R, Side: L R, LFE
Частота : 48,0 КГц
Частота кадров : 31,250 кадров/сек (1536 spf)
Метод сжатия : С потерями
Размер потока : 539 Мбайт (9%)
Заголовок : Dub License
Язык : Russian
Default : Да
Forced : Да

Аудио #2
Идентификатор : 3
Формат : AC-3
Формат/Информация : Audio Coding 3
Расширение режима : CM (complete main)
Параметр Endianness формата : Big
Идентификатор кодека : A_AC3
Продолжительность : 1 ч. 57 м.
Вид битрейта : Постоянный
Битрейт : 192 Кбит/сек
Каналы : 2 канала
Расположение каналов : Front: L R
Частота : 48,0 КГц
Частота кадров : 31,250 кадров/сек (1536 spf)
Метод сжатия : С потерями
Размер потока : 162 Мбайт (3%)
Заголовок : Дубляж
Язык : Ukrainian
Default : Нет
Forced : Нет

Аудио #3
Идентификатор : 4
Формат : AC-3
Формат/Информация : Audio Coding 3
Расширение режима : CM (complete main)
Параметр Endianness формата : Big
Идентификатор кодека : A_AC3
Продолжительность : 1 ч. 57 м.
Вид битрейта : Постоянный
Битрейт : 640 Кбит/сек
Каналы : 6 каналов
Расположение каналов : Front: L C R, Side: L R, LFE
Частота : 48,0 КГц
Частота кадров : 31,250 кадров/сек (1536 spf)
Метод сжатия : С потерями
Размер потока : 539 Мбайт (9%)
Заголовок : Original
Язык : English
Default : Нет
Forced : Нет

Текст #1
Идентификатор : 5
Формат : UTF-8
Идентификатор кодека : S_TEXT/UTF8
Идентификатор кодека/Информация : UTF-8 Plain Text
Заголовок : Форсированные
Язык : Russian
Default : Да
Forced : Нет

Текст #2
Идентификатор : 6
Формат : UTF-8
Идентификатор кодека : S_TEXT/UTF8
Идентификатор кодека/Информация : UTF-8 Plain Text
Заголовок : Полные
Язык : Russian
Default : Нет
Forced : Нет

Текст #3
Идентификатор : 7
Формат : UTF-8
Идентификатор кодека : S_TEXT/UTF8
Идентификатор кодека/Информация : UTF-8 Plain Text
Заголовок : SDH
Язык : Russian
Default : Нет
Forced : Нет

Текст #4
Идентификатор : 8
Формат : UTF-8
Идентификатор кодека : S_TEXT/UTF8
Идентификатор кодека/Информация : UTF-8 Plain Text
Заголовок : Форсированные
Язык : Ukrainian
Default : Нет
Forced : Нет

Текст #5
Идентификатор : 9
Формат : UTF-8
Идентификатор кодека : S_TEXT/UTF8
Идентификатор кодека/Информация : UTF-8 Plain Text
Заголовок : Full
Язык : English
Default : Нет
Forced : Нет

Текст #6
Идентификатор : 10
Формат : UTF-8
Идентификатор кодека : S_TEXT/UTF8
Идентификатор кодека/Информация : UTF-8 Plain Text
Заголовок : SDH
Язык : English
Default : Нет
Forced : Нет

Меню
00:00:00.000 : : 1. Tony Interrogation
00:03:22.326 : : 2. Incredibles vs Underminer
00:08:53.615 : : 3. Chewed Out
00:09:36.783 : : 4. Family Dinner
00:13:38.274 : : 5. Poolside
00:15:44.735 : : 6. Deavor Meets Supers
00:21:19.736 : : 7. Pillow Talk
00:23:28.280 : : 8. New House
00:27:08.792 : : 9. Where's Mom?
00:28:59.569 : : 10. Runaway Train
00:35:10.900 : : 11. Raccoon Fight
00:39:07.844 : : 12. Helen Checks in
00:42:43.893 : : 13. Tony Forgets
00:43:42.411 : : 14. Air Rescue
00:47:35.351 : : 15. Breakfast Blowup
00:48:53.887 : : 16. Triumph Return
00:54:15.585 : : 17. Vi Embarrassed
00:56:16.038 : : 18. Tracking Screenslaver
01:00:58.695 : : 19. Screenslaver Caught
01:02:01.884 : : 20. Breaking Point
01:06:55.510 : : 21. E the Babysitter
01:09:18.235 : : 22. Helen Reviews Footage
01:11:28.199 : : 23. Bob's Apology
01:12:37.685 : : 24. Helen Slips Away
01:14:39.265 : : 25. Auntie E
01:18:00.966 : : 26. Cold Room
01:20:32.534 : : 27. House Attack
01:25:01.929 : : 28. Kids Alone
01:27:59.439 : : 29. Super Signing
01:31:53.923 : : 30. Kids to the Rescue
01:33:26.432 : : 31. Trap is Sprung
01:36:25.237 : : 32. Battle Royale
01:37:45.192 : : 33. Save the Day
01:43:56.895 : : 34. Resolution
01:45:35.912 : : 35. Epilogue
01:47:30.902 : : 36. End Credits




Скачать Суперсемейка 2 через торрент https://d.radikal.ru/d15/1811/ac/d1d44fe36fdd.jpg Скачать фильм Суперсемейка 2 через торрент бесплантно в хорошем качестве Описание: После событий первой части суперсемейка пользуется повышенным вниманием со стороны журналистов. Неожиданно оказалось, что ... 10 10 4
Торрент: Зарегистрирован [2018-12-01 18:04] · скачан: 103 раз
Статус: √ проверено
Размер: 6.12 GB
Как cкачать? Как скачать Суперсемейка 2 через торрент | qTorrent

% Раздел Тема Автор DL S | L
Ultra HD (UHD: 2K, 4K, 8K) [ 21.18 GB ] Суперсемейка 2 / Incredibles 2 [2018 Мультфильм UHD BDRip 2160p] [SDR] DUB [] bober100 Скачать
1 | 0
3D Мультфильмы [ 7.8 GB ] Суперсемейка 2 3Д / Incredibles 2 3D [2018 Мультфильм BDRip 1080p] [Half OverUnder / Вертикальная анаморфная стереопара] DUB [] bober100 Скачать
2 | 0
Иностранные мультфильмы [ 2.32 GB ] Суперсемейка 2 / Incredibles 2 [2018 Мультфильм BDRip-AVC] DUB [] - ExKinoRay Enigma2010 Скачать
32 | 0
Ultra HD (UHD: 2K, 4K, 8K) [ 8.45 GB ] Суперсемейка 2 / Incredibles 2 [2018 Мультфильм UHD BDRip 2160p] DUB [] bober100 Скачать
1 | 0
Зарубежные Мультфильмы (BDRip 1080p, 720p, Blu-ray, BD-Remux) [ 24.05 GB ] Суперсемейка 2 / Incredibles 2 [2018 Мультфильм BD Remux 1080p] [2D 3D] DUB [] bober100 Скачать
3 | 0
Зарубежные Мультфильмы (BDRip 1080p, 720p, Blu-ray, BD-Remux) [ 20.13 GB ] Суперсемейка 2 / Incredibles 2 [2018 Мультфильм BD Remux 1080p] DUB [] bober100 Скачать
1 | 0
Ultra HD (UHD: 2K, 4K, 8K) [ 40.91 GB ] Суперсемейка 2 / Incredibles 2 [2018 Мультфильм UHD BDRemux 2160p] DUB [] bober100 Скачать
1 | 0


>> Регистрируемся здесь <<






Отзывы и комментарии о схеме читаем и пишем здесь: ---> Отзывы и комментарии о схеме

Новые благодарочки в телеграм довольных пользователей:
скриншот   скриншот   скриншот   скриншот   скриншот
    Дорогой пользователь! Огромная просьба, поблагодарите релизера, оцените раздачу и оставьте свои комментарий, если Вы скачали Суперсемейка 2 через торрент бесплатно! Внесите свою лепту в развитие PiratBit!
    Комментировать посты могут только пользователи прошедшие не сложную регистрацию
    Показать сообщения:    

    Суперсемейка 2 через торрент
    Скачать бесплатно Суперсемейка 2
    Суперсемейка 2 скачать торрент
    Суперсемейка 2 смотреть онлайн
    Cкачать фильм Суперсемейка 2 бесплатно
    Суперсемейка 2 скачать торрент в хорошем качестве
    Суперсемейка 2 смотреть онлайн бесплатно в хорошем качестве


    Вы не можете начинать темы
    Вы не можете отвечать на сообщения
    Вы не можете редактировать свои сообщения
    Вы не можете удалять свои сообщения
    Вы не можете голосовать в опросах
    Вы не можете прикреплять файлы к сообщениям
    Вы можете скачивать файлы