Ссылка на приватное зеркало всего за 1$. Внимание количество ограничено!!!

OK

1+1

iTunes

мы

OK

1

WEB-DLRip

Джокер

Пифагор

Ведьмак / The Witcher сериал

Лицензия

ПШазам

ОК

Оно 2

iTunes

30
pack

Вам бонус

ВАЖНО

!!Акция!!

Alien_RageХит недели

RePack

Resident Evil 21

ИГРА 18+

pack

RePack

jed

!!Акция!!

Alien_Rage

RePack

fifa19

RePack

Assassins Creed: Odyssey

RePack

NEED FOR SPEED™ PAYBACK

4 сезон

9 сезон

Бесстыжие 9 сезон

Все сериалы

все сериалы на PB.wtf

RePack

FAR CRY 5
  

Дымовая завеса / Smoke Screen (Шон Баттимер) [2018, Триллер, WEB-DL 720p] MVO ["Синема УС"] pb.wtf

Дымовая завеса через торрент pb.wtf

Размер: 3.27 GB | Добавлен: 1 год 1 мес. назад | Торрент скачан:13 раз
Скачать  

01-12-2018 18:29 Дымовая завеса Скачать торрент  

Дымовая завеса / Smoke ScreenГод выпуска: 2018
Страна: США
Жанр: Триллер
Продолжительность: 01:29:34
Перевод: Любительский (многоголосый) | "Синема УС"
Субтитры: отсутствуют

Режиссер: Шон Баттимер

rating

В ролях:

Аиша Уэкс, Дечен Турман, Камрус Джонсон, Шон Баттимер, Сет Бейрд, Брюс Бартон, Jaclene Wilk, Том ДиНардо, Джон Боррас, Чарльз Балсер

Описание:

Убийство Генерального прокурора США заставляет преступников скрываться. Между тем пробуждаются подпольные силы, которые готовы взять ситуацию в свои руки и всё исравить.

Качество: WEB-DL 720p
Формат: MKV

Видео: h.264,4 840 kb/s, 1280x720
Аудио#1: Русский, (AC3, 2 ch, 384 Кбит/с)
скриншот  скриншот  скриншот  

Общее
Уникальный идентификатор : 246121863806288001613556620388446670770 (0xB92958C46E3A29238DEFE220512E8FB2)
Полное имя : D:\Smoke.Screen.2018.P.WEB-DL.72Op_KOSHARA.mkv
Формат : Matroska
Версия формата : Version 2
Размер файла : 3,27 Гбайт
Продолжительность : 1 ч. 29 м.
Режим общего битрейта : Переменный
Общий поток : 5225 Кбит/сек
Дата кодирования : UTC 2018-12-01 14:16:35
Программа кодирования : mkvmerge v8.3.0 ('Over the Horizon') 64bit
Библиотека кодирования : libebml v1.3.1 + libmatroska v1.4.2

Видео
Идентификатор : 1
Формат : AVC
Формат/Информация : Advanced Video Codec
Профиль формата : High@L4.1
Параметр CABAC формата : Да
Параметр RefFrames формата : 4 кадра
Идентификатор кодека : V_MPEG4/ISO/AVC
Продолжительность : 1 ч. 29 м.
Вид битрейта : Переменный
Битрейт : 4840 Кбит/сек
Максимальный битрейт : 5500 Кбит/сек
Ширина : 1280 пикселей
Высота : 720 пикселей
Соотношение сторон : 16:9
Режим частоты кадров : Постоянный
Частота кадров : 23,976 (24000/1001) кадра/сек
Стандарт вещания : Component
Цветовое пространство : YUV
Субдискретизация насыщенности : 4:2:0
Битовая глубина : 8 бит
Тип развёртки : Прогрессивная
Бит/(Пиксели*Кадры) : 0.214
Размер потока : 2,96 Гбайт (91%)
Default : Да
Forced : Нет
Цветовой диапазон : Limited
Основные цвета : BT.709
Характеристики трансфера : BT.709
Коэффициенты матрицы : BT.709

Аудио
Идентификатор : 2
Формат : AC-3
Формат/Информация : Audio Coding 3
Расширение режима : CM (complete main)
Параметр Endianness формата : Big
Идентификатор кодека : A_AC3
Продолжительность : 1 ч. 29 м.
Вид битрейта : Постоянный
Битрейт : 384 Кбит/сек
Каналы : 2 канала
Расположение каналов : Front: L R
Частота : 48,0 КГц
Частота кадров : 31,250 кадров/сек (1536 spf)
Метод сжатия : С потерями
Размер потока : 246 Мбайт (7%)
Default : Да
Forced : Нет

pb.wtf



Скачать Дымовая завеса через торрент http://img14.lostpic.net/2018/12/01/020a7b7598fe34bf7bdafef2ae0d372a.jpg Скачать фильм Дымовая завеса через торрент бесплантно в хорошем качестве Описание: Убийство Генерального прокурора США заставляет преступников скрываться. Между тем пробуждаются подпольные силы, которые готовы ... 10 10 2
Торрент: Зарегистрирован [2018-12-01 18:29] · скачан: 13 раз
Статус: T временная
Размер: 3.27 GB
Как cкачать? Как скачать Дымовая завеса через торрент | qTorrent

% Раздел Тема Автор DL S | L
T Фильмы (мультфильмы) cо спонсором показа (Новинки AVI/MKV) [ 1.37 GB ] Дымовая завеса / Smoke Screen [2018 WEB-DLRip] MVO ["Синема УС"] bober100 Скачать
1 | 0

28-11-2019 20:33  

Отключить всю рекламу на сайте

    Дорогой пользователь! Огромная просьба, поблагодарите релизера, оцените раздачу и оставьте свои комментарий, если Вы скачали Дымовая завеса через торрент бесплатно! Внесите свою лепту в развитие PiratBit!
    Комментировать посты могут только пользователи прошедшие не сложную регистрацию
    Показать сообщения:    

    Дымовая завеса через торрент
    Скачать бесплатно Дымовая завеса
    Дымовая завеса скачать торрент
    Дымовая завеса смотреть онлайн
    Cкачать фильм Дымовая завеса бесплатно
    Дымовая завеса скачать торрент в хорошем качестве
    Дымовая завеса смотреть онлайн бесплатно в хорошем качестве


    Вы не можете начинать темы
    Вы не можете отвечать на сообщения
    Вы не можете редактировать свои сообщения
    Вы не можете удалять свои сообщения
    Вы не можете голосовать в опросах
    Вы не можете прикреплять файлы к сообщениям
    Вы можете скачивать файлы