Ссылка на приватное зеркало всего за 1$. Внимание количество ограничено!!!

OK

1+1

iTunes

мы

OK

1

WEB-DLRip

Джокер

Пифагор

Ведьмак / The Witcher сериал

iTunes

ПШазам

ОК

Оно 2

iTunes

30
pack

Вам бонус

ВАЖНО

!!Акция!!

Alien_RageХит недели

RePack

Resident Evil 21

ИГРА 18+

pack

RePack

jed

RePack

fifa19

RePack

Assassins Creed: Odyssey

RePack

NEED FOR SPEED™ PAYBACK

4 сезон

9 сезон

Бесстыжие 9 сезон

Все сериалы

все сериалы на PB.wtf

RePack

FAR CRY 5
  

Шагающий через порталы / Portal Man (Чарльз Дэвис) [2017, Фантастика, WEB-DL 720p] MVO ["Синема УС"] pb.wtf

Шагающий через порталы через торрент pb.wtf

Размер: 3.11 GB | Добавлен: 1 год 1 мес. назад | Торрент скачан:12 раз
Скачать  

01-12-2018 19:04 Шагающий через порталы Скачать торрент  

Шагающий через порталы / Portal ManГод выпуска: 2017
Страна: США
Жанр: Фантастика
Продолжительность: 01:28:27
Перевод: Любительский (многоголосый) | "Синема УС"
Субтитры: отсутствуют

Режиссер: Чарльз Дэвис

rating

В ролях:

Чарльз Дэвис, Дженнифер Эйфферт

Описание:

Найти свою цель, убить её, шагнуть в портал, повторить. Всё было просто в жизни нашего героя, пока за ним не увязалась женщина, которая стала задавать вопросы...

Качество: WEB-DL 720p
Формат: MKV

Видео: h.264,4 646 Кбит/с, 1280x720
Аудио#1: Русский, (AC3, 2 ch, 384 Кбит/с)
скриншот  скриншот  скриншот  

Общее
Уникальный идентификатор : 220745116914940859759814184202174703741 (0xA611F68C0ACE7DB68AB117CDA0B7A87D)
Полное имя : D:\Portal Man.2017.Pk.WEB-DL.72Op.mkv
Формат : Matroska
Версия формата : Version 2
Размер файла : 3,11 Гбайт
Продолжительность : 1 ч. 28 м.
Режим общего битрейта : Переменный
Общий поток : 5032 Кбит/сек
Дата кодирования : UTC 2018-12-01 13:11:11
Программа кодирования : mkvmerge v8.3.0 ('Over the Horizon') 64bit
Библиотека кодирования : libebml v1.3.1 + libmatroska v1.4.2

Видео
Идентификатор : 1
Формат : AVC
Формат/Информация : Advanced Video Codec
Профиль формата : High@L4.1
Параметр CABAC формата : Да
Параметр RefFrames формата : 4 кадра
Идентификатор кодека : V_MPEG4/ISO/AVC
Продолжительность : 1 ч. 28 м.
Вид битрейта : Переменный
Битрейт : 4646 Кбит/сек
Максимальный битрейт : 5500 Кбит/сек
Ширина : 1280 пикселей
Высота : 720 пикселей
Соотношение сторон : 16:9
Режим частоты кадров : Постоянный
Частота кадров : 23,976 (24000/1001) кадра/сек
Стандарт вещания : Component
Цветовое пространство : YUV
Субдискретизация насыщенности : 4:2:0
Битовая глубина : 8 бит
Тип развёртки : Прогрессивная
Бит/(Пиксели*Кадры) : 0.206
Размер потока : 2,81 Гбайт (90%)
Default : Да
Forced : Нет
Цветовой диапазон : Limited
Основные цвета : BT.709
Характеристики трансфера : BT.709
Коэффициенты матрицы : BT.709

Аудио
Идентификатор : 2
Формат : AC-3
Формат/Информация : Audio Coding 3
Расширение режима : CM (complete main)
Параметр Endianness формата : Big
Идентификатор кодека : A_AC3
Продолжительность : 1 ч. 28 м.
Вид битрейта : Постоянный
Битрейт : 384 Кбит/сек
Каналы : 2 канала
Расположение каналов : Front: L R
Частота : 48,0 КГц
Частота кадров : 31,250 кадров/сек (1536 spf)
Метод сжатия : С потерями
Размер потока : 243 Мбайт (8%)
Default : Да
Forced : Нет

pb.wtf



Скачать Шагающий через порталы через торрент https://c.radikal.ru/c13/1812/22/a23e35a42f1d.jpg Скачать фильм Шагающий через порталы через торрент бесплантно в хорошем качестве Описание: Найти свою цель, убить её, шагнуть в портал, повторить. Всё было просто в жизни нашего героя, пока за ним не увязалась женщина, ... 7 10 3
Торрент: Зарегистрирован [2018-12-01 19:04] · скачан: 12 раз
Статус: T временная
Размер: 3.11 GB
Как cкачать? Как скачать Шагающий через порталы через торрент | qTorrent

% Раздел Тема Автор DL S | L
T Фильмы (мультфильмы) cо спонсором показа (Новинки AVI/MKV) [ 1.37 GB ] Шагающий через порталы / Portal Man [2017 WEB-DLRip] MVO ["Синема УС"] bober100 Скачать
1 | 0

28-11-2019 20:33  

Отключить всю рекламу на сайте

01-12-2018 19:38 Шагающий через порталы Скачать торрент  

В раздаче прекрасно все - описания, скриншоты, постер. Качать и смотреть даже как то страшно)pb.wtf



01-12-2018 20:27 Шагающий через порталы Скачать торрент  

что это за трешак?))) кто смотрел?)))pb.wtf



01-12-2018 21:30 Шагающий через порталы Скачать торрент  

Спецэффекты на "ZX Spectrum" в фильме делали pb.wtf



    Дорогой пользователь! Огромная просьба, поблагодарите релизера, оцените раздачу и оставьте свои комментарий, если Вы скачали Шагающий через порталы через торрент бесплатно! Внесите свою лепту в развитие PiratBit!
    Комментировать посты могут только пользователи прошедшие не сложную регистрацию
    Показать сообщения:    

    Шагающий через порталы через торрент
    Скачать бесплатно Шагающий через порталы
    Шагающий через порталы скачать торрент
    Шагающий через порталы смотреть онлайн
    Cкачать фильм Шагающий через порталы бесплатно
    Шагающий через порталы скачать торрент в хорошем качестве
    Шагающий через порталы смотреть онлайн бесплатно в хорошем качестве


    Вы не можете начинать темы
    Вы не можете отвечать на сообщения
    Вы не можете редактировать свои сообщения
    Вы не можете удалять свои сообщения
    Вы не можете голосовать в опросах
    Вы не можете прикреплять файлы к сообщениям
    Вы можете скачивать файлы