Ссылка на приватное зеркало нашего сайта всего за 1$. Внимание количество ограничено!!!

2 сезон

iTunes

1 сезон

1

2 сезон

2 сезон

iTunes

1 сезон

RePack

30

Ultimate

ВАЖНО

ИГРА 18+

pack

RePack

MK11
pack

Забери бонус

RePack

jed

!!Акция!!

Alien_Rage

RePack

fifa19

RePack

Assassins Creed: Odyssey

RePack

NEED FOR SPEED™ PAYBACK

4 сезон

9 сезон

Бесстыжие 9 сезон

Все сериалы

все сериалы на PB.wtf

RePack

FAR CRY 5
  

Город и город / The City and the City / Сезон: 1 / Серии: 1-4 из 4 (Том Шенклэнд) [2018, фэнтези, драма, криминал, детектив, WEBRip 1080p] MVO [TVShows] pb.wtf

Город и город через торрент pb.wtf

Размер: 7.09 GB | Добавлен: 2 года назад | Торрент скачан:38 раз
Скачать  

02-12-2018 02:46 Город и город Скачать торрент  

Город и город / The City and the City
Год выпуска: 2018
Страна: Великобритания
Жанр: фэнтези, драма, криминал, детектив
Продолжительность: ~00:58:00 серия
Перевод: Профессиональный (многоголосый) | TVShows
Субтитры: отсутствуют

Режиссер: Том Шенклэнд

rating

В ролях:

Кристиан Камарго (Doctor Bowden), Рон Кук (Commissar Gadlem), Диллон Мандип (Constable Corwi), Роберт Фёрт (Mike Gorse), Дэвид Моррисси (Inspector Tyador Borlú), Дэннис О’Доннелл (Beszel Resident), Грэм Пэррингтон (Security cop), Лара Пулвер (Katrynia Borlú), Мария Шрадер (Senior Detective Dhatt), Паприка Стеэн (Professor Nancy), Дэниэл Уэбб (Major Syedr), Кокей Фалкоу (Shukman)

Описание:

Сюжет строится вокруг расследования обычного с виду преступления, когда на улицах Бещеля, окраинного городка в Европе, был найден труп молодой женщины. Инспектор Борл воспринимает это дела как обычную будничную рутину, но с началом расследования инспектору приходится переместиться в соседний город, а это оказывается настоящим испытанием…

Качество: WEBRip 1080p
Формат: MKV

Видео: 1920x796 (2.40:1), 25.000 fps, MPEG-4 AVC ~3 720 kbps avg
Аудио#1: 48.0 kHz, AC3 Dolby Digital, 3/2 (L,C,R,l,r) + LFE ch, ~384 kbps | RUS
Аудио#2: 48.0 kHz, AC3 Dolby Digital, 3/2 (L,C,R,l,r) + LFE ch, ~384 kbps | ENG
скриншот  скриншот  скриншот  

General
Unique ID : 271064561995815194243975714733416923772 (0xCBED22BBFD5C8EEB0F0FE3DF879A427C)
Complete name : The.City.And.The.City.S01E01.1080p.TVShows.mkv
Format : Matroska
Format version : Version 4 / Version 2
File size : 1.81 GiB
Duration : 57 min 42 s
Overall bit rate : 4 496 kb/s
Encoded date : UTC 2018-10-30 08:36:55
Writing application : mkvmerge v28.2.0 ('The Awakening') 32-bit
Writing library : libebml v1.3.6 + libmatroska v1.4.9

Video
ID : 1
Format : AVC
Format/Info : Advanced Video Codec
Format profile : High@L4.2
Format settings, CABAC : Yes
Format settings, ReFrames : 4 frames
Codec ID : V_MPEG4/ISO/AVC
Duration : 57 min 42 s
Bit rate : 3 726 kb/s
Width : 1 920 pixels
Height : 796 pixels
Display aspect ratio : 2.40:1
Frame rate mode : Constant
Frame rate : 25.000 FPS
Color space : YUV
Chroma subsampling : 4:2:0
Bit depth : 8 bits
Scan type : Progressive
Bits/(Pixel*Frame) : 0.098
Stream size : 1.50 GiB (83%)
Writing library : x264 core 155 r2901 7d0ff22
Encoding settings : cabac=1 / ref=4 / deblock=1:0:0 / analyse=0x3:0x113 / me=hex / subme=8 / psy=1 / psy_rd=1.00:0.00 / mixed_ref=1 / me_range=16 / chroma_me=1 / trellis=2 / 8x8dct=1 / cqm=0 / deadzone=21,11 / fast_pskip=1 / chroma_qp_offset=-2 / threads=12 / lookahead_threads=2 / sliced_threads=0 / nr=0 / decimate=1 / interlaced=0 / bluray_compat=0 / constrained_intra=0 / bframes=3 / b_pyramid=2 / b_adapt=1 / b_bias=0 / direct=3 / weightb=1 / open_gop=0 / weightp=2 / keyint=250 / keyint_min=25 / scenecut=40 / intra_refresh=0 / rc_lookahead=50 / rc=crf / mbtree=1 / crf=17.0 / qcomp=0.60 / qpmin=0 / qpmax=69 / qpstep=4 / ip_ratio=1.40 / aq=1:1.00
Language : English
Default : Yes
Forced : No
Color range : Limited
Matrix coefficients : BT.709

Audio #1
ID : 2
Format : AC-3
Format/Info : Audio Coding 3
Mode extension : CM (complete main)
Format settings, Endianness : Big
Codec ID : A_AC3
Duration : 57 min 42 s
Bit rate mode : Constant
Bit rate : 384 kb/s
Channel(s) : 6 channels
Channel positions : Front: L C R, Side: L R, LFE
Sampling rate : 48.0 kHz
Frame rate : 31.250 FPS (1536 spf)
Bit depth : 16 bits
Compression mode : Lossy
Stream size : 159 MiB (9%)
Title : TVShows
Language : Russian
Default : Yes
Forced : No

Audio #2
ID : 3
Format : AC-3
Format/Info : Audio Coding 3
Mode extension : CM (complete main)
Format settings, Endianness : Big
Codec ID : A_AC3
Duration : 57 min 42 s
Bit rate mode : Constant
Bit rate : 384 kb/s
Channel(s) : 6 channels
Channel positions : Front: L C R, Side: L R, LFE
Sampling rate : 48.0 kHz
Frame rate : 31.250 FPS (1536 spf)
Bit depth : 16 bits
Compression mode : Lossy
Stream size : 159 MiB (9%)
Title : Original
Language : English
Default : No
Forced : No

pb.wtf



Скачать Город и город через торрент http://img11.lostpic.net/2018/11/15/3876e8eba08e97e832883727b5cda659.png Скачать фильм Город и город через торрент бесплантно в хорошем качестве Описание: Сюжет строится вокруг расследования обычного с виду преступления, когда на улицах Бещеля, окраинного городка в Европе, был найден ... 10 10 2
Торрент: Зарегистрирован [2018-12-02 02:46] · скачан: 38 раз
Статус: √ проверено
Размер: 7.09 GB
Как cкачать? Как скачать Город и город через торрент | qTorrent

% Раздел Тема Автор DL S | L
Зарубежные сериалы [ 2.74 GB ] Город и город / The City and the City / Сезон: 1 / Серии: 1-4 из 4 [2018 WEBRip] MVO [Good People] bober100 Скачать
1 | 0
Зарубежные сериалы [ 3.6 GB ] Город и город / The City and the City / Сезон: 1 / Серии: 1-4 из 4 [2018 WEBRip] [MVO] killermax2013 Скачать
1 | 0
Зарубежные сериалы [ 2.74 GB ] Город и город / The City and the City / Сезон: 1 / Серии: 1-4 из 4 [2018 WEBRip] MVO [Profix Media] bober100 Скачать
1 | 0

28-11-2019 20:33  

Отключить всю рекламу на сайте

    Дорогой пользователь! Огромная просьба, поблагодарите релизера, оцените раздачу и оставьте свои комментарий, если Вы скачали Город и город через торрент бесплатно! Внесите свою лепту в развитие PiratBit!
    Комментировать посты могут только пользователи прошедшие не сложную регистрацию
    Показать сообщения:    

    Город и город через торрент
    Скачать бесплатно Город и город
    Город и город скачать торрент
    Город и город смотреть онлайн
    Cкачать фильм Город и город бесплатно
    Город и город скачать торрент в хорошем качестве
    Город и город смотреть онлайн бесплатно в хорошем качестве


    Вы не можете начинать темы
    Вы не можете отвечать на сообщения
    Вы не можете редактировать свои сообщения
    Вы не можете удалять свои сообщения
    Вы не можете голосовать в опросах
    Вы не можете прикреплять файлы к сообщениям
    Вы можете скачивать файлы