Ссылка на приватное зеркало нашего сайта всего за 1$. Внимание количество ограничено!!!

2 сезон

iTunes

1 сезон

1

2 сезон

2 сезон

iTunes

1 сезон

RePack

30

Новинка

ВАЖНО

ИГРА 18+

pack

RePack

MK11
pack

Забери бонус

RePack

jed

!!Акция!!

Alien_Rage

RePack

fifa19

RePack

Assassins Creed: Odyssey

RePack

NEED FOR SPEED™ PAYBACK

4 сезон

9 сезон

Бесстыжие 9 сезон

Все сериалы

все сериалы на PB.wtf

RePack

FAR CRY 5
  

Конец дня / La fin du jour (Жюльен Дювивье) [1939, драма, BD Remux 1080р] MVO [СВ-Дубль] pb.wtf

Конец дня через торрент pb.wtf

Размер: 24.97 GB | Добавлен: 2 года назад | Торрент скачан:0 раз
Скачать  

02-12-2018 03:03 Конец дня Скачать торрент  

Конец дня / La fin du jour
Год выпуска: 1939
Страна: Франция
Жанр: драма
Продолжительность: 01:44:46
Перевод: Профессиональный (многоголосый) | студия СВ-Дубль
Субтитры: английские, французские

Режиссер: Жюльен Дювивье

rating

В ролях:

Виктор Франсен, Мишель Симон, Луи Жуве, Мадлен Озерэ, Александр Аркийер, Артюр Девер, Сильви, Жоффре, Шарль Гранваль, Пьер Манье

Описание:

В аббатстве Сен-Жан-Ля-Ривьер, приюте для престарелых актеров (не знающих, что их общему дому грозит закрытие), изводят друг друга три пожилых жильца: Рафаэль Сен-Клер, старый красавец, когда-то обласканный славой и женщинами, а ныне растративший состояние на азартные игры и любовные похождения; Жиль Марни, актер амбициозный и уважаемый собратьями, но никогда не знавший успеха (его жена ушла от него к Сен-Клеру и погибла на охоте; ее смерть была похожа на самоубийство, и эта тайна до сих пор преследует Марни) и, наконец, Кабриссад, затейник и шутник, любящий при случае приврать, всю жизнь просидевший в дублерах. Марни — его главный мучитель — презирает Кабриссада. В отместку Кабриссад каждый день изобретает новые каверзы и однажды зачитывает вслух некролог Марни, по ошибке напечатанный в местной газете…

Качество: BD Remux 1080р
Формат: MKV

Видео: MPEG-4 AVC, 1920x1080 (1.37:1), 23.976 fps, 32636 kbps
Аудио#1: Русский AC3 2.0, 48 kHz, 192 kbps
Аудио#2: Французский DTS-HD MA 2.0, 48 kHz, 1237 kbps, 24-bit (DTS Core: 2.0, 48 kHz, 768 kbps, 24-bit)
скриншот  скриншот  скриншот  скриншот  

General
Unique ID : 147380185498493494416922052720149478634 (0x6EE06428B426B1F1F3EB853E88F13CEA)
Complete name : La.fin.du.jour.1939.1080p.BDRemux.mkv
Format : Matroska
Format version : Version 2
File size : 25.0 GiB
Duration : 1 h 44 min
Overall bit rate mode : Variable
Overall bit rate : 34.1 Mb/s
Movie name : La fin du jour / Конец дня (1939) – RuTrаcker
Encoded date : UTC 2018-06-10 21:09:02
Writing application : mkvmerge v23.0.0 ('The Bride Said No') 64-bit
Writing library : libebml v1.3.6 + libmatroska v1.4.9
Cover : Yes
Attachments : cover.jpg

Video
ID : 1
Format : AVC
Format/Info : Advanced Video Codec
Format profile : Main@L4.1
Format settings : CABAC / 4 Ref Frames
Format settings, CABAC : Yes
Format settings, RefFrames : 4 frames
Format settings, GOP : M=1, N=12
Codec ID : V_MPEG4/ISO/AVC
Duration : 1 h 44 min
Bit rate mode : Variable
Bit rate : 32.6 Mb/s
Maximum bit rate : 39.6 Mb/s
Width : 1 920 pixels
Height : 1 080 pixels
Display aspect ratio : 16:9
Frame rate mode : Constant
Frame rate : 23.976 (24000/1001) FPS
Color space : YUV
Chroma subsampling : 4:2:0
Bit depth : 8 bits
Scan type : Progressive
Bits/(Pixel*Frame) : 0.656
Stream size : 23.9 GiB (96%)
Language : French
Default : Yes
Forced : No
Color range : Limited
Color primaries : BT.709
Transfer characteristics : BT.709
Matrix coefficients : BT.709

Audio #1
ID : 2
Format : AC-3
Format/Info : Audio Coding 3
Codec ID : A_AC3
Duration : 1 h 44 min
Bit rate mode : Constant
Bit rate : 192 kb/s
Channel(s) : 2 channels
Channel positions : Front: L R
Sampling rate : 48.0 kHz
Frame rate : 31.250 FPS (1536 SPF)
Bit depth : 16 bits
Compression mode : Lossy
Stream size : 144 MiB (1%)
Title : MVO – СВ-Дубль
Language : Russian
Service kind : Complete Main
Default : Yes
Forced : No

Audio #2
ID : 3
Format : DTS
Format/Info : Digital Theater Systems
Format profile : MA / Core
Codec ID : A_DTS
Duration : 1 h 44 min
Bit rate mode : Variable / Constant
Bit rate : 1 237 kb/s / 768 kb/s
Channel(s) : 2 channels
Channel positions : Front: L R
Sampling rate : 48.0 kHz
Frame rate : 93.750 FPS (512 SPF)
Bit depth : 24 bits
Compression mode : Lossless / Lossy
Stream size : 927 MiB (4%)
Title : Original
Language : French
Default : No
Forced : No

Text #1
ID : 4
Format : UTF-8
Codec ID : S_TEXT/UTF8
Codec ID/Info : UTF-8 Plain Text
Duration : 1 h 44 min
Bit rate : 73 b/s
Count of elements : 1852
Stream size : 56.2 KiB (0%)
Title : Pathé
Language : English
Default : No
Forced : No

Text #2
ID : 5
Format : UTF-8
Codec ID : S_TEXT/UTF8
Codec ID/Info : UTF-8 Plain Text
Duration : 1 h 43 min
Bit rate : 90 b/s
Count of elements : 1891
Stream size : 68.4 KiB (0%)
Title : SDH
Language : French
Default : No
Forced : No

Text #3
ID : 6
Format : PGS
Codec ID : S_HDMV/PGS
Codec ID/Info : Picture based subtitle format used on BDs/HD-DVDs
Duration : 1 h 43 min
Bit rate : 54.3 kb/s
Count of elements : 3787
Stream size : 40.3 MiB (0%)
Title : PSDH
Language : French
Default : No
Forced : No

Menu
00:00:00.000 : en:Chapter 1
00:08:07.487 : en:Chapter 2
00:16:43.836 : en:Chapter 3
00:22:18.170 : en:Chapter 4
00:27:09.253 : en:Chapter 5
00:34:22.686 : en:Chapter 6
00:40:05.236 : en:Chapter 7
00:47:43.861 : en:Chapter 8
00:53:26.620 : en:Chapter 9
00:59:10.380 : en:Chapter 10
01:07:11.569 : en:Chapter 11
01:14:06.067 : en:Chapter 12
01:19:26.971 : en:Chapter 13
01:27:04.219 : en:Chapter 14
01:35:50.745 : en:Chapter 15
01:42:14.545 : en:Chapter 16

pb.wtf



Скачать Конец дня через торрент http://img11.lostpic.net/2018/11/27/5e2aa67bbb837b74ffcbc3d75fcc56b9.jpg Скачать фильм Конец дня через торрент бесплантно в хорошем качестве Описание: В аббатстве Сен-Жан-Ля-Ривьер, приюте для престарелых актеров (не знающих, что их общему дому грозит закрытие), изводят друг ... 10 10 2
Info! Золотая раздача, скачанное не засчитывается.
Торрент: Зарегистрирован [2018-12-02 03:03] · скачан: 0 раз
Статус: √ проверено
Размер: 24.97 GB
Как cкачать? Как скачать Конец дня через торрент | qTorrent

28-11-2019 20:33  

Отключить всю рекламу на сайте

    Дорогой пользователь! Огромная просьба, поблагодарите релизера, оцените раздачу и оставьте свои комментарий, если Вы скачали Конец дня через торрент бесплатно! Внесите свою лепту в развитие PiratBit!
    Комментировать посты могут только пользователи прошедшие не сложную регистрацию
    Показать сообщения:    

    Конец дня через торрент
    Скачать бесплатно Конец дня
    Конец дня скачать торрент
    Конец дня смотреть онлайн
    Cкачать фильм Конец дня бесплатно
    Конец дня скачать торрент в хорошем качестве
    Конец дня смотреть онлайн бесплатно в хорошем качестве


    Вы не можете начинать темы
    Вы не можете отвечать на сообщения
    Вы не можете редактировать свои сообщения
    Вы не можете удалять свои сообщения
    Вы не можете голосовать в опросах
    Вы не можете прикреплять файлы к сообщениям
    Вы можете скачивать файлы