Ссылка на приватное зеркало всего за 1$. Внимание количество ограничено!!!

iTunes

iTunes

iTunes

1

iTunes

iTunes

iTunes

WEBRip

iTunes

30
pack

$ от Little Big

ВАЖНО

!!Акция!!

Alien_RageХит недели

RePack

Resident Evil 21

ИГРА 18+

pack

RePack

jed

!!Акция!!

Alien_Rage

RePack

fifa19

RePack

Assassins Creed: Odyssey

RePack

NEED FOR SPEED™ PAYBACK

4 сезон

9 сезон

Бесстыжие 9 сезон

Все сериалы

все сериалы на PB.wtf

RePack

FAR CRY 5
  

Олимпиус Инферно (Игорь Волошин) [2009, боевик, драма, DVDRip-AVC] - ExKinoRay pb.wtf

Олимпиус Инферно через торрент pb.wtf

Размер: 2.16 GB | Добавлен: 1 год 8 мес. назад | Торрент скачан:41 раз
Скачать  

02-12-2018 04:13 Олимпиус Инферно Скачать торрент  

Информация о фильме
Оригинальное название: Олимпиус Инферно
Год выхода: 2009
Жанр: боевик, драма
Режиссер: Игорь Волошин
В ролях: Полина Филоненко, Генри Давид, Вадим Цаллати, Адгур Малия, Елена Храмова, Артур Гургенян, Венера Скверия, Адгур Джения, Сергей Сангулия, Сабина Ахмедова

Описание:
08.08.08. Молодой энтомолог из США, Майкл, и его подруга, московская журналистка Женя, приезжают в Южную Осетию для съемок фильма о редком виде бабочек. Но этой же ночью грузинские войска нападают на Южную Осетию. Камеры Майкла снимают начало операции
Наши герои понимают, что в их руках оказались доказательства, которые поставят точку в наступившей информационной войне. Но об этом узнают и грузинские спецслужбы. Чтобы донести миру правду, Майклу и Жене нужно прорваться через оккупированную территорию в разрушенный, но не сломленный Цхинвал.



Страна: Россия
Студия: Первый канал
Продолжительность: 01:29:39
Перевод: Не требуется

Формат: MKV
Качество: DVDRip-AVC
Видео: AVC, 716x576@1016x576 (16:9), 25.000 fps, ~3190 Kbps (0.309 bit/pixel)
Аудио: AC-3, 48.0 KHz, 2.0 ch, 256 Kbps, CBR
General
Unique ID : 224788827031218757541195919027195738560 (0xA91CC0D934E81E089D6705553431F9C0)
Complete name : D:\Olimpius.Inferno.2009.DVDRip.AVC.ExKinoRay.mkv
Format : Matroska
Format version : Version 2
File size : 2.16 GiB
Duration : 1 h 29 min
Overall bit rate : 3 446 kb/s
Movie name : Олимпиус Инферно 2009 for ExKinoRay
Encoded date : UTC 2017-01-07 05:07:02
Writing application : mkvmerge v7.6.0 ('Garden of Dreams') 32bit built on Feb 11 2015 00:18:47
Writing library : libebml v1.3.1 + libmatroska v1.4.2

Video
ID : 1
Format : AVC
Format/Info : Advanced Video Codec
Format profile : High@L4.1
Format settings, CABAC : Yes
Format settings, ReFrames : 14 frames
Codec ID : V_MPEG4/ISO/AVC
Duration : 1 h 29 min
Bit rate : 3 190 kb/s
Width : 716 pixels
Height : 576 pixels
Display aspect ratio : 16:9
Original display aspect ratio : 16:9
Frame rate mode : Constant
Frame rate : 25.000 FPS
Color space : YUV
Chroma subsampling : 4:2:0
Bit depth : 8 bits
Scan type : Progressive
Bits/(Pixel*Frame) : 0.309
Stream size : 1.95 GiB (91%)
Title : Enigma
Writing library : x264 core 144 r2525 40bb568
Encoding settings : cabac=1 / ref=14 / deblock=1:-2:-2 / analyse=0x3:0x133 / me=umh / subme=10 / psy=1 / psy_rd=1.00:0.05 / mixed_ref=1 / me_range=32 / chroma_me=1 / trellis=2 / 8x8dct=1 / cqm=0 / deadzone=21,11 / fast_pskip=1 / chroma_qp_offset=-3 / threads=12 / lookahead_threads=3 / sliced_threads=0 / nr=0 / decimate=1 / interlaced=0 / bluray_compat=0 / constrained_intra=0 / bframes=12 / b_pyramid=2 / b_adapt=2 / b_bias=0 / direct=3 / weightb=1 / open_gop=0 / weightp=2 / keyint=250 / keyint_min=25 / scenecut=40 / intra_refresh=0 / rc=2pass / mbtree=0 / bitrate=3190 / ratetol=1.0 / qcomp=0.65 / qpmin=0 / qpmax=51 / qpstep=4 / cplxblur=20.0 / qblur=0.5 / ip_ratio=1.40 / pb_ratio=1.30 / aq=1:1.00
Language : English
Default : Yes
Forced : No
Color range : Limited
Color primaries : BT.601 PAL
Transfer characteristics : BT.470 System B, BT.470 System G
Matrix coefficients : BT.601

Audio
ID : 2
Format : AC-3
Format/Info : Audio Coding 3
Mode extension : CM (complete main)
Format settings, Endianness : Big
Codec ID : A_AC3
Duration : 1 h 29 min
Bit rate mode : Constant
Bit rate : 256 kb/s
Channel(s) : 2 channels
Channel positions : Front: L R
Sampling rate : 48.0 kHz
Frame rate : 31.250 FPS (1536 spf)
Compression mode : Lossy
Stream size : 164 MiB (7%)
Language : Russian
Default : Yes
Forced : No
Релиз от:

Автор релиза: pb.wtf



Скачать Олимпиус Инферно через торрент http://s019.radikal.ru/i640/1203/d0/4af34da27ee5.jpg Скачать фильм Олимпиус Инферно через торрент бесплантно в хорошем качестве Описание:08.08.08. Молодой энтомолог из США, Майкл, и его подруга, московская журналистка Женя, приезжают в Южную Осетию для съемок фильма ... 10 10 1
Info! Золотая раздача, скачанное не засчитывается.
Торрент: Зарегистрирован [2018-12-02 04:13] · скачан: 41 раз
Статус: √ проверено
Размер: 2.16 GB
Как cкачать? Как скачать Олимпиус Инферно через торрент | qTorrent

28-11-2019 20:33  

Отключить всю рекламу на сайте

    Дорогой пользователь! Огромная просьба, поблагодарите релизера, оцените раздачу и оставьте свои комментарий, если Вы скачали Олимпиус Инферно через торрент бесплатно! Внесите свою лепту в развитие PiratBit!
    Комментировать посты могут только пользователи прошедшие не сложную регистрацию
    Показать сообщения:    

    Олимпиус Инферно через торрент
    Скачать бесплатно Олимпиус Инферно
    Олимпиус Инферно скачать торрент
    Олимпиус Инферно смотреть онлайн
    Cкачать фильм Олимпиус Инферно бесплатно
    Олимпиус Инферно скачать торрент в хорошем качестве
    Олимпиус Инферно смотреть онлайн бесплатно в хорошем качестве


    Вы не можете начинать темы
    Вы не можете отвечать на сообщения
    Вы не можете редактировать свои сообщения
    Вы не можете удалять свои сообщения
    Вы не можете голосовать в опросах
    Вы не можете прикреплять файлы к сообщениям
    Вы можете скачивать файлы