Ссылка на приватное зеркало нашего сайта всего за 1$. Внимание количество ограничено!!!

2 сезон

iTunes

1 сезон

1

2 сезон

2 сезон

iTunes

1 сезон

RePack

30

Новинка

ВАЖНО

ИГРА 18+

pack

RePack

MK11
pack

Забери бонус

RePack

jed

!!Акция!!

Alien_Rage

RePack

fifa19

RePack

Assassins Creed: Odyssey

RePack

NEED FOR SPEED™ PAYBACK

4 сезон

9 сезон

Бесстыжие 9 сезон

Все сериалы

все сериалы на PB.wtf

RePack

FAR CRY 5
  

Черная молния / Black Lightning / Сезон: 2 / Серии: 1-16 из 16 (Салим Акил, Билле Вудрафф) [2018, фантастика, боевик, WEB-DL 1080p] MVO [Jaskier] pb.wtf

Черная молния через торрент pb.wtf

Размер: 36.27 GB | Добавлен: 1 год 8 мес. назад | Торрент скачан:2 раза
Скачать  

02-12-2018 05:35 Черная молния Скачать торрент  

Черная молния / Black Lightning
Год выпуска: 2018
Страна: США
Жанр: фантастика, боевик
Продолжительность: ~ 00:45:00
Перевод: Профессиональный (многоголосый) | Jaskier
Субтитры: отсутствуют

Режиссер: Салим Акил, Билле Вудрафф

rating

В ролях:

Грегг Генри, Кресс Уильямс, Нафиса Уильямс, Чайна Энн МакКлейн, Кристин Адамс,Донни Керрингтон, Чарлби Дин Крик, Шеин Момпремиа, Энтони Рейнольдс, Чантал Тхюй

Описание:

Джефферсон Пирс, известный как супергерой Чёрная Молния, давно забыл про подвиги, выбрав семейное счастье и домашний покой. Но тому, кто борется со злом, сложно видеть, как в мире правит преступность, коррупция и несправедливость. Младшая дочь Пирса Дженнифер, умная и независимая студентка, оказывается втянута в конфликт с местной бандой. И Джефферсону приходится вновь стать супергероем…

Качество: WEB-DL 1080p
Формат: MKV

Видео: 1920x1080 (16:9) | X264 | ~12700 kbps | 23.976 fps
Аудио#1: AC3, 48,0 КГц, 6 ch, 384 kbps - [RUS]
Аудио#2: AC3, 48,0 КГц, 6 ch, 384 kbps - [ENG]
скриншот  скриншот  скриншот  

Общее
Уникальный идентификатор : 34586408469295208443542838939626705084 (0x1A051997E518D5B4988BAE8ED1BF10BC)
Полное имя : G:\Jaskier\Black.Lightning Season 2 (WEB-DL l 1080p l Jaskier)\Black.Lightning.S02E01.WEB-DL.1080p.Jaskier.mkv
Формат : Matroska
Версия формата : Version 4 / Version 2
Размер файла : 4,00 Гбайт
Продолжительность : 42 м. 20 с.
Общий поток : 13,5 Мбит/сек
Дата кодирования : UTC 2018-10-16 09:55:00
Программа кодирования : mkvmerge v27.0.0 ('Metropolis') 64-bit
Библиотека кодирования : libebml v1.3.6 + libmatroska v1.4.9

Видео
Идентификатор : 1
Формат : AVC
Формат/Информация : Advanced Video Codec
Профиль формата : High@L4
Настройки формата : CABAC / 4 Ref Frames
Параметр CABAC формата : Да
Параметр RefFrames формата : 4 кадра
Идентификатор кодека : V_MPEG4/ISO/AVC
Продолжительность : 42 м. 20 с.
Битрейт : 12,7 Мбит/сек
Ширина : 1920 пикселей
Высота : 1080 пикселей
Соотношение сторон : 16:9
Режим частоты кадров : Постоянный
Частота кадров : 23,976 (24000/1001) кадра/сек
Цветовое пространство : YUV
Субдискретизация насыщенности : 4:2:0
Битовая глубина : 8 бит
Тип развёртки : Прогрессивная
Бит/(Пиксели*Кадры) : 0.256
Размер потока : 3,77 Гбайт (94%)
Default : Да
Forced : Нет
Цветовой диапазон : Limited
Основные цвета : BT.709
Характеристики трансфера : BT.709
Коэффициенты матрицы : BT.709

Аудио #1
Идентификатор : 2
Формат : AC-3
Формат/Информация : Audio Coding 3
Идентификатор кодека : A_AC3
Продолжительность : 42 м. 20 с.
Вид битрейта : Постоянный
Битрейт : 384 Кбит/сек
Каналы : 6 каналов
Расположение каналов : Front: L C R, Side: L R, LFE
Частота : 48,0 КГц
Частота кадров : 31,250 кадров/сек (1536 SPF)
Битовая глубина : 16 бит
Метод сжатия : С потерями
Размер потока : 116 Мбайт (3%)
Язык : Russian
ServiceKind/String : Complete Main
Default : Да
Forced : Нет

Аудио #2
Идентификатор : 3
Формат : AC-3
Формат/Информация : Audio Coding 3
Идентификатор кодека : A_AC3
Продолжительность : 42 м. 20 с.
Вид битрейта : Постоянный
Битрейт : 384 Кбит/сек
Каналы : 6 каналов
Расположение каналов : Front: L C R, Side: L R, LFE
Частота : 48,0 КГц
Частота кадров : 31,250 кадров/сек (1536 SPF)
Битовая глубина : 16 бит
Метод сжатия : С потерями
Размер потока : 116 Мбайт (3%)
Язык : English
ServiceKind/String : Complete Main
Default : Нет
Forced : Нет

Когда раздача ведётся путём добавления новых серий, при каждом добавлении создётся новый торрент. Чтобы начать докачку новой серии, пользователям необходимо сделать следующее:
(1) остановить скачивание,
(2) удалить старый торрент у себя из клиента (старые серии удалять не надо),
(3) скачать новый торрент и запустить его у себя в клиенте вместо старого, при этом указать клиенту путь в старую папку, куда и должно происходить скачивание новых серий.
Ваш клиент при этом должен произвести хеширование (проверку) старой папки (если не производит сам - помогите ему сделать это), и будет докачивать только те серии, которых у вас ещё нет. Старые серии при этом не удаляются, а продолжают раздаваться!
Eсли вы уже удалили старые серии, то предотвратить повторную закачку старых серий можно, отжав галочку в соответсвующих местах при запуске нового торрента. По возможности, желательно не удалять старые серии как можно дольше, чтобы релизер не столько продолжал раздавать старые серии, а смог сконцентрироваться на новых.
pb.wtf



Скачать Черная молния через торрент http://img14.lostpic.net/2018/12/02/73b1a6ff2004458372c9ada4baf0dcf2.png Скачать фильм Черная молния через торрент бесплантно в хорошем качестве Описание: Джефферсон Пирс, известный как супергерой Чёрная Молния, давно забыл про подвиги, выбрав семейное счастье и домашний покой. Но ... 7.8 10 4
Info! Золотая раздача, скачанное не засчитывается.
Торрент: Зарегистрирован [2019-03-22 19:16] · скачан: 2 раз
Статус: √ проверено
Размер: 36.27 GB
Как cкачать? Как скачать Черная молния через торрент | qTorrent

% Раздел Тема Автор DL S | L
Зарубежные сериалы [ 9.07 GB ] Черная молния / Black Lightning / Сезон: 2 / Серии: 1-16 из 16 [2018 WEB-DLRip] [MVO] killermax2013 Скачать
1 | 0
Зарубежные сериалы [ 20.48 GB ] Черная молния / Black Lightning / Сезон: 2 / Серии: 1-16 из 16 [2018 WEB-DL 720p] MVO [Jaskier] bober100 Скачать
1 | 0
Зарубежные сериалы [ 8.33 GB ] Черная молния / Black Lightning / Сезон: 2 / Серии: 1-16 из 16 [2018 WEB-DLRip] MVO [Jaskier] bober100 Скачать
1 | 0
Зарубежные сериалы [ 51.69 GB ] Черная молния / Black Lightning / Сезон 2 / Серия 1-16 из 16 [2018 WEB-DL 1080p] 3x [MVO] killermax2013 Скачать
1 | 0
Зарубежные сериалы [ 13.28 GB ] Черная молния / Black Lightning / Сезон: 2 / Серии: 1-16 из 16 [2018 HDTVRip 720p] DVO [KosharaSerials] bober100 Скачать
1 | 0
Зарубежные сериалы [ 20.7 GB ] Черная молния / Black Lightning / Сезон: 2 / Серии: 1-16 из 16 [2018 WEBRip 720p] MVO [Good People] bober100 Скачать
1 | 0

28-11-2019 20:33  

Отключить всю рекламу на сайте

    Дорогой пользователь! Огромная просьба, поблагодарите релизера, оцените раздачу и оставьте свои комментарий, если Вы скачали Черная молния через торрент бесплатно! Внесите свою лепту в развитие PiratBit!
    Комментировать посты могут только пользователи прошедшие не сложную регистрацию
    Показать сообщения:    

    Черная молния через торрент
    Скачать бесплатно Черная молния
    Черная молния скачать торрент
    Черная молния смотреть онлайн
    Cкачать фильм Черная молния бесплатно
    Черная молния скачать торрент в хорошем качестве
    Черная молния смотреть онлайн бесплатно в хорошем качестве


    Вы не можете начинать темы
    Вы не можете отвечать на сообщения
    Вы не можете редактировать свои сообщения
    Вы не можете удалять свои сообщения
    Вы не можете голосовать в опросах
    Вы не можете прикреплять файлы к сообщениям
    Вы можете скачивать файлы