Ссылка на приватное зеркало нашего сайта всего за 1$. Внимание количество ограничено!!!

2 сезон

iTunes

1 сезон

1

2 сезон

2 сезон

iTunes

1 сезон

RePack

30

Ultimate

ВАЖНО

ИГРА 18+

pack

RePack

MK11
pack

Забери бонус

RePack

jed

!!Акция!!

Alien_Rage

RePack

fifa19

RePack

Assassins Creed: Odyssey

RePack

NEED FOR SPEED™ PAYBACK

4 сезон

9 сезон

Бесстыжие 9 сезон

Все сериалы

все сериалы на PB.wtf

RePack

FAR CRY 5
  

Мечтатели / The Dreamers (Бернардо Бертолуччи) [2003, драма, мелодрама, BDRip 1080p by msltel] 3 x MVO, AVO | Kor transfer pb.wtf

Мечтатели через торрент pb.wtf

Размер: 15.22 GB | Добавлен: 1 год 11 мес. назад | Торрент скачан:63 раза
Скачать  

02-12-2018 06:10 Мечтатели Скачать торрент  

Название: Мечтатели
Оригинальное название: The Dreamers
Год выпуска: 2003
Страна: Великобритания, Франция, Италия
Жанр: драма, мелодрама
Продолжительность: 01:54:37
Перевод: профессиональный многоголосый, авторский

Режиссер: Бернардо Бертолуччи
В ролях: Майкл Питт, Ева Грин, Луи Гаррель, Анна Чэнселлор, Робен Ренуччи, Жан-Пьер Кальфон, Жан-Пьер Лео, Флориан Кадиу, Пьер Ансисс, Валентен Мерле

О фильме: Париж. 1968 год. Демонстрации студентов, баррикады на улицах, в воздухе пахнет революцией, но у трёх молодых людей своя реальность, свой мир — мир кино. Дни и ночи напролёт они смотрят фильмы и не выходят из дома... Кино стало их жизнью. Сначала это просто увлечение, потом сложная паутина психологических и сексуальных отношений. Между тем, беспорядки на улицах Парижа достигают своей кульминации... Фильм снят по мотивам романа Гилберта Адэра «Мечтатели» (The Holy Innocents, 1988) и ещё двух книг писателя.



Качество: BDRip 1080p
Формат: MKV
Видео: MPEG-4 AVC, 15.2 Mбит/с, 1920x1074, 23.976 кадр/с
Аудио 1: русский, DTS, 1509 kbps, 6 ch, 48 kHz [закадровый многоголосый, R5]
Аудио 2: русский, AC3, 384 kbps, 6 ch, 48 kHz [закадровый многоголосый, R7]
Аудио 3: русский, AC3, 192 kbps, 2 ch, 48 kHz [закадровый многоголосый, HTB+]
Аудио 4: русский, AC3, 192 kbps, 2 ch, 48 kHz [авторский, Сергей Визгунов VHS]
Аудио 5: английский, DTS, 1509 kbps, 6 ch, 48 kHz [оригинал]
Субтитры 1: русские
Субтитры 2: английские
Главы/чаптеры
Общее
Уникальный идентификатор : 197857123325559649068940081942566902453 (0x94D9E55693905EE187F3AD7177A59AB5)
Полное имя : D:\Video\Мечтатели.2003.Korean transfer.BDRip 1080p by msltel.mkv
Формат : Matroska
Версия формата : Version 4
Размер файла : 15,2 Гбайт
Продолжительность : 1 ч. 54 м.
Общий поток : 19,0 Мбит/сек
Название фильма : Rip by msltel
Дата кодирования : UTC 2018-12-02 07:12:04
Программа кодирования : mkvmerge v8.2.0 ('World of Adventure') 64bit
Библиотека кодирования : libebml v1.3.1 + libmatroska v1.4.2

Видео
Идентификатор : 1
Формат : AVC
Формат/Информация : Advanced Video Codec
Профиль формата : High@L4.1
Настройки формата : CABAC / 4 Ref Frames
Параметр CABAC формата : Да
Параметр RefFrames формата : 4 кадра
Идентификатор кодека : V_MPEG4/ISO/AVC
Продолжительность : 1 ч. 54 м.
Битрейт : 15,2 Мбит/сек
Ширина : 1920 пикселей
Высота : 1074 пикселя
Соотношение сторон : 16:9
Режим частоты кадров : Постоянный
Частота кадров : 23,976 (24000/1001) кадра/сек
Цветовое пространство : YUV
Субдискретизация насыщенности : 4:2:0
Битовая глубина : 8 бит
Тип развёртки : Прогрессивная
Бит/(Пиксели*Кадры) : 0.308
Размер потока : 12,2 Гбайт (80%)
Библиотека кодирования : x264 core 155 r2901 7d0ff22
Настройки программы : cabac=1 / ref=4 / deblock=1:-3:-2 / analyse=0x3:0x113 / me=umh / subme=11 / psy=1 / psy_rd=1.00:0.15 / mixed_ref=1 / me_range=32 / chroma_me=1 / trellis=2 / 8x8dct=1 / cqm=0 / deadzone=21,11 / fast_pskip=0 / chroma_qp_offset=-3 / threads=6 / lookahead_threads=1 / sliced_threads=0 / nr=0 / decimate=1 / interlaced=0 / bluray_compat=0 / constrained_intra=0 / bframes=10 / b_pyramid=2 / b_adapt=2 / b_bias=0 / direct=1 / weightb=1 / open_gop=0 / weightp=2 / keyint=230 / keyint_min=23 / scenecut=40 / intra_refresh=0 / rc_lookahead=40 / rc=crf / mbtree=1 / crf=19.7 / qcomp=0.60 / qpmin=0 / qpmax=69 / qpstep=4 / vbv_maxrate=62500 / vbv_bufsize=78125 / crf_max=0.0 / nal_hrd=none / filler=0 / ip_ratio=1.40 / aq=1:1.00
Язык : English
Default : Да
Forced : Нет

Аудио #1
Идентификатор : 2
Формат : DTS
Формат/Информация : Digital Theater Systems
Идентификатор кодека : A_DTS
Продолжительность : 1 ч. 54 м.
Вид битрейта : Постоянный
Битрейт : 1509 Кбит/сек
Каналы : 6 каналов
Channel layout : C L R Ls Rs LFE
Частота : 48,0 КГц
Частота кадров : 93,750 кадра/сек (512 SPF)
Битовая глубина : 24 бит
Метод сжатия : С потерями
Размер потока : 1,21 Гбайт (8%)
Заголовок : MVO R5
Язык : Russian
Default : Да
Forced : Нет

Аудио #2
Идентификатор : 3
Формат : AC-3
Формат/Информация : Audio Coding 3
Коммерческое название : Dolby Digital
Идентификатор кодека : A_AC3
Продолжительность : 1 ч. 54 м.
Вид битрейта : Постоянный
Битрейт : 384 Кбит/сек
Каналы : 6 каналов
Channel layout : L R C LFE Ls Rs
Частота : 48,0 КГц
Частота кадров : 31,250 кадров/сек (1536 SPF)
Битовая глубина : 16 бит
Метод сжатия : С потерями
Размер потока : 315 Мбайт (2%)
Заголовок : MVO R7
Язык : Russian
ServiceKind/String : Complete Main
Default : Нет
Forced : Нет

Аудио #3
Идентификатор : 4
Формат : AC-3
Формат/Информация : Audio Coding 3
Коммерческое название : Dolby Digital
Идентификатор кодека : A_AC3
Продолжительность : 1 ч. 54 м.
Вид битрейта : Постоянный
Битрейт : 192 Кбит/сек
Каналы : 2 канала
Channel layout : L R
Частота : 48,0 КГц
Частота кадров : 31,250 кадров/сек (1536 SPF)
Битовая глубина : 16 бит
Метод сжатия : С потерями
Размер потока : 157 Мбайт (1%)
Заголовок : MVO HTB+
Язык : Russian
ServiceKind/String : Complete Main
Default : Нет
Forced : Нет

Аудио #4
Идентификатор : 5
Формат : AC-3
Формат/Информация : Audio Coding 3
Коммерческое название : Dolby Digital
Идентификатор кодека : A_AC3
Продолжительность : 1 ч. 54 м.
Вид битрейта : Постоянный
Битрейт : 192 Кбит/сек
Каналы : 2 канала
Channel layout : L R
Частота : 48,0 КГц
Частота кадров : 31,250 кадров/сек (1536 SPF)
Битовая глубина : 16 бит
Метод сжатия : С потерями
Размер потока : 157 Мбайт (1%)
Заголовок : Сергей Визгунов
Язык : Russian
ServiceKind/String : Complete Main
Default : Нет
Forced : Нет

Аудио #5
Идентификатор : 6
Формат : DTS
Формат/Информация : Digital Theater Systems
Идентификатор кодека : A_DTS
Продолжительность : 1 ч. 54 м.
Вид битрейта : Постоянный
Битрейт : 1509 Кбит/сек
Каналы : 6 каналов
Channel layout : C L R Ls Rs LFE
Частота : 48,0 КГц
Частота кадров : 93,750 кадра/сек (512 SPF)
Битовая глубина : 24 бит
Метод сжатия : С потерями
Размер потока : 1,21 Гбайт (8%)
Заголовок : original
Язык : English
Default : Нет
Forced : Нет

Текст #1
Идентификатор : 7
Формат : UTF-8
Идентификатор кодека : S_TEXT/UTF8
Идентификатор кодека/Информация : UTF-8 Plain Text
Продолжительность : 1 ч. 47 м.
Битрейт : 73 бит/сек
ElementCount : 703
Размер потока : 57,6 Кбайт (0%)
Заголовок : русские
Язык : Russian
Default : Нет
Forced : Нет

Текст #2
Идентификатор : 8
Формат : UTF-8
Идентификатор кодека : S_TEXT/UTF8
Идентификатор кодека/Информация : UTF-8 Plain Text
Продолжительность : 1 ч. 45 м.
Битрейт : 46 бит/сек
ElementCount : 1036
Размер потока : 36,0 Кбайт (0%)
Заголовок : английские
Язык : English
Default : Нет
Forced : Нет

Меню
00:00:00.000 : en:00:00:00.000
00:01:34.761 : en:00:01:34.761
00:05:29.329 : en:00:05:29.329
00:11:43.328 : en:00:11:43.328
00:16:02.545 : en:00:16:02.545
00:21:38.255 : en:00:21:38.255
00:27:19.555 : en:00:27:19.555
00:30:10.475 : en:00:30:10.475
00:33:31.885 : en:00:33:31.885
00:35:15.780 : en:00:35:15.780
00:38:05.325 : en:00:38:05.325
00:42:53.446 : en:00:42:53.446
00:48:38.666 : en:00:48:38.666
00:59:16.887 : en:00:59:16.887
01:02:44.052 : en:01:02:44.052
01:05:36.057 : en:01:05:36.057
01:10:10.706 : en:01:10:10.706
01:11:33.956 : en:01:11:33.956
01:15:21.684 : en:01:15:21.684
01:20:19.523 : en:01:20:19.523
01:24:43.787 : en:01:24:43.787
01:29:40.667 : en:01:29:40.667
01:34:01.177 : en:01:34:01.177
01:37:10.450 : en:01:37:10.450
01:40:40.618 : en:01:40:40.618
01:44:29.054 : en:01:44:29.054
01:46:14.910 : en:01:46:14.910
01:48:55.821 : en:01:48:55.821
pb.wtf



Скачать Мечтатели через торрент https://d.radikal.ru/d28/1812/b8/b43bad2c107b.jpg Скачать фильм Мечтатели через торрент бесплантно в хорошем качестве О фильме: Париж. 1968 год. Демонстрации студентов, баррикады на улицах, в воздухе пахнет революцией, но у трёх молодых людей своя ... 7 10 1
Info! Золотая раздача, скачанное не засчитывается.
Торрент: Зарегистрирован [2018-12-02 06:10] · скачан: 63 раз
Статус: √ проверено
Размер: 15.22 GB
Как cкачать? Как скачать Мечтатели через торрент | qTorrent

% Раздел Тема Автор DL S | L
Фильмы [HD 720p, 1080p] (Хороший звук DUB, MVO) [ 5.87 GB ] Мечтатели / The Dreamers [2003 BDRip 720p by msltel] 3 x MVO AVO | Kor transfer msltel Скачать
21 | 0

28-11-2019 20:33  

Отключить всю рекламу на сайте

    Дорогой пользователь! Огромная просьба, поблагодарите релизера, оцените раздачу и оставьте свои комментарий, если Вы скачали Мечтатели через торрент бесплатно! Внесите свою лепту в развитие PiratBit!
    Комментировать посты могут только пользователи прошедшие не сложную регистрацию
    Показать сообщения:    

    Мечтатели через торрент
    Скачать бесплатно Мечтатели
    Мечтатели скачать торрент
    Мечтатели смотреть онлайн
    Cкачать фильм Мечтатели бесплатно
    Мечтатели скачать торрент в хорошем качестве
    Мечтатели смотреть онлайн бесплатно в хорошем качестве


    Вы не можете начинать темы
    Вы не можете отвечать на сообщения
    Вы не можете редактировать свои сообщения
    Вы не можете удалять свои сообщения
    Вы не можете голосовать в опросах
    Вы не можете прикреплять файлы к сообщениям
    Вы можете скачивать файлы