Ссылка на приватное зеркало всего за 1$. Внимание количество ограничено!!!

OK

1+1

iTunes

мы

OK

1

WEB-DLRip

Джокер

Пифагор

Ведьмак / The Witcher сериал

iTunes

ПШазам

ОК

Оно 2

iTunes

30
pack

Вам бонус

ВАЖНО

!!Акция!!

Alien_RageХит недели

RePack

Resident Evil 21

ИГРА 18+

pack

RePack

jed

RePack

fifa19

RePack

Assassins Creed: Odyssey

RePack

NEED FOR SPEED™ PAYBACK

4 сезон

9 сезон

Бесстыжие 9 сезон

Все сериалы

все сериалы на PB.wtf

RePack

FAR CRY 5
  

Смейся или умри / Suomen hauskin mies (Хейкки Куянпяя) [2018, драма, военный, история, BDRip 720p] MVO ["Синема УС"] pb.wtf

Смейся или умри через торрент pb.wtf

Размер: 5.22 GB | Добавлен: 1 год 1 мес. назад | Торрент скачан:28 раз
Скачать  

02-12-2018 06:22 Смейся или умри Скачать торрент  

Смейся или умри / Suomen hauskin miesГод выпуска: 2018
Страна: Финляндия, Швеция
Жанр: драма, военный, история
Продолжительность: 01:45:30
Перевод: Любительский (многоголосый) | "Синема УС"
Субтитры: отсутствуют

Режиссер: Хейкки Куянпяя

rating

В ролях:

Мартти Суосало, Яни Воланен, Лиина Пёвсти, Пааво Киннунен, Веса Вьерикко, Юсси Лехтонен, Юсси Никкиля, Томми Эронен, Пану Вауконен, Paleface

Описание:

1918 год. Финляндия после Гражданской войны. Знаменитый актер Парикка, считающийся лучшим комиком в стране, схвачен и отправлен в лагерь, где уже томятся его товарищи в ожидании смерти. Все «красные» будут казнены. Положение Парикки оказывается хуже всех: узники считают его предателем. Неожиданно комендант лагеря делает предложение актерам. Если они подготовят хорошее выступление для немецких гостей лагеря, их не расстреляют. Как отреагируют на это актеры?

Качество: BDRip 720p
Формат: MKV

Видео: h.264, 6 639 kb/s, 1280x536
Аудио#1: Русский (AC3, 2 ch, 448 Кбит/с)
скриншот  скриншот  скриншот  

Общее
Уникальный идентификатор : 191715344384955647632151025595503005711 (0x903B0841DC424470A15D420D1C32D00F)
Полное имя : D:\Laugh.Or.Die.2O18.P.BDRip.72Op_KOSHARA.mkv
Формат : Matroska
Версия формата : Version 2
Размер файла : 5,22 Гбайт
Продолжительность : 1 ч. 45 м.
Режим общего битрейта : Переменный
Общий поток : 7089 Кбит/сек
Дата кодирования : UTC 2018-11-28 13:08:36
Программа кодирования : mkvmerge v8.3.0 ('Over the Horizon') 64bit
Библиотека кодирования : libebml v1.3.1 + libmatroska v1.4.2

Видео
Идентификатор : 1
Формат : AVC
Формат/Информация : Advanced Video Codec
Профиль формата : High@L4.1
Параметр CABAC формата : Да
Параметр RefFrames формата : 4 кадра
Идентификатор кодека : V_MPEG4/ISO/AVC
Продолжительность : 1 ч. 45 м.
Вид битрейта : Переменный
Битрейт : 6639 Кбит/сек
Максимальный битрейт : 7500 Кбит/сек
Ширина : 1280 пикселей
Высота : 536 пикселей
Соотношение сторон : 2,40:1
Режим частоты кадров : Постоянный
Частота кадров : 23,976 (24000/1001) кадра/сек
Стандарт вещания : Component
Цветовое пространство : YUV
Субдискретизация насыщенности : 4:2:0
Битовая глубина : 8 бит
Тип развёртки : Прогрессивная
Бит/(Пиксели*Кадры) : 0.395
Размер потока : 4,79 Гбайт (92%)
Default : Да
Forced : Нет
Цветовой диапазон : Limited
Основные цвета : BT.709
Характеристики трансфера : BT.709
Коэффициенты матрицы : BT.709

Аудио
Идентификатор : 2
Формат : AC-3
Формат/Информация : Audio Coding 3
Расширение режима : CM (complete main)
Параметр Endianness формата : Big
Идентификатор кодека : A_AC3
Продолжительность : 1 ч. 45 м.
Вид битрейта : Постоянный
Битрейт : 448 Кбит/сек
Каналы : 2 канала
Расположение каналов : Front: L R
Частота : 48,0 КГц
Частота кадров : 31,250 кадров/сек (1536 spf)
Метод сжатия : С потерями
Размер потока : 338 Мбайт (6%)
Default : Да
Forced : Нет

pb.wtf



Скачать Смейся или умри через торрент http://pic1.kartinco.top/images/11/71mpy.jpg Скачать фильм Смейся или умри через торрент бесплантно в хорошем качестве Описание: 1918 год. Финляндия после Гражданской войны. Знаменитый актер Парикка, считающийся лучшим комиком в стране, схвачен и отправлен в ... 10 10 2
Торрент: Зарегистрирован [2018-12-02 06:22] · скачан: 28 раз
Статус: # сомнительно
Размер: 5.22 GB
Как cкачать? Как скачать Смейся или умри через торрент | qTorrent

% Раздел Тема Автор DL S | L
T Фильмы (мультфильмы) cо спонсором показа (Новинки AVI/MKV) [ 1.32 GB ] Смейся или умри / Suomen hauskin mies [2018 военный история HDRip Любительский ] oleg8 Скачать
1 | 0

28-11-2019 20:33  

Отключить всю рекламу на сайте

    Дорогой пользователь! Огромная просьба, поблагодарите релизера, оцените раздачу и оставьте свои комментарий, если Вы скачали Смейся или умри через торрент бесплатно! Внесите свою лепту в развитие PiratBit!
    Комментировать посты могут только пользователи прошедшие не сложную регистрацию
    Показать сообщения:    

    Смейся или умри через торрент
    Скачать бесплатно Смейся или умри
    Смейся или умри скачать торрент
    Смейся или умри смотреть онлайн
    Cкачать фильм Смейся или умри бесплатно
    Смейся или умри скачать торрент в хорошем качестве
    Смейся или умри смотреть онлайн бесплатно в хорошем качестве


    Вы не можете начинать темы
    Вы не можете отвечать на сообщения
    Вы не можете редактировать свои сообщения
    Вы не можете удалять свои сообщения
    Вы не можете голосовать в опросах
    Вы не можете прикреплять файлы к сообщениям
    Вы можете скачивать файлы