Ссылка на приватное зеркало всего за 1$. Внимание количество ограничено!!!

OK

1+1

iTunes

мы

OK

1

WEB-DLRip

Джокер

Пифагор

Ведьмак / The Witcher сериал

iTunes

ПШазам

ОК

Оно 2

iTunes

30
pack

Вам бонус

ВАЖНО

!!Акция!!

Alien_RageХит недели

RePack

Resident Evil 21

ИГРА 18+

pack

RePack

jed

RePack

fifa19

RePack

Assassins Creed: Odyssey

RePack

NEED FOR SPEED™ PAYBACK

4 сезон

9 сезон

Бесстыжие 9 сезон

Все сериалы

все сериалы на PB.wtf

RePack

FAR CRY 5
  

Сомниум / Somnium (Джозеф Киминера) [2018, Триллер, WEB-DL 720p] MVO ["Синема УС"] pb.wtf

Сомниум через торрент pb.wtf

Размер: 2.88 GB | Добавлен: 1 год 1 мес. назад | Торрент скачан:57 раз
Скачать  

02-12-2018 07:50 Сомниум Скачать торрент  

Сомниум / SomniumГод выпуска: 2018
Страна: США
Жанр: Триллер
Продолжительность: 01:18:38
Перевод: Любительский (многоголосый) | "Синема УС"
Субтитры: отсутствуют

Режиссер: Джозеф Киминера

rating

В ролях:

Джанна Чиминера, Алекса Киминера, Тиффани Энн Браун, Дениз Хейнс, Майкл Грандинетти, Джерри Рикарделли, Эрскин Алисейс Александр, Николь Розенберг, Аудра Балевски

Описание:

Трое грабителей опрометчиво вламываются в роскошный загородный дом за легкой наживой. Казалось бы, ничего сложного, в доме никого, кроме немощного старика и двух его внучек. Незадавшиеся грабители еще не знают, что у девочек есть своя ужасающая тайна, и с каждой проведенной в доме минутой их шансы выбраться живыми становятся всё меньше и меньше.

Качество: WEB-DL 720p
Формат: MKV

Видео: h.264, 4 857 Кбит/с, 1280x720
Аудио#1: Русский, (AC3, 2 ch, 384 Кбит/с)
скриншот  скриншот  скриншот  

Общее
Уникальный идентификатор : 203463384827031135942358770188201565811 (0x99119F5EF198030599DE45AE27191E73)
Полное имя : D:\Somnium.2018.P.WEB-DL.72Op.mkv
Формат : Matroska
Версия формата : Version 2
Размер файла : 2,88 Гбайт
Продолжительность : 1 ч. 18 м.
Режим общего битрейта : Переменный
Общий поток : 5243 Кбит/сек
Дата кодирования : UTC 2018-11-30 21:24:47
Программа кодирования : mkvmerge v8.3.0 ('Over the Horizon') 64bit
Библиотека кодирования : libebml v1.3.1 + libmatroska v1.4.2

Видео
Идентификатор : 1
Формат : AVC
Формат/Информация : Advanced Video Codec
Профиль формата : High@L4.1
Параметр CABAC формата : Да
Параметр RefFrames формата : 4 кадра
Идентификатор кодека : V_MPEG4/ISO/AVC
Продолжительность : 1 ч. 18 м.
Вид битрейта : Переменный
Битрейт : 4857 Кбит/сек
Максимальный битрейт : 5500 Кбит/сек
Ширина : 1280 пикселей
Высота : 720 пикселей
Соотношение сторон : 16:9
Режим частоты кадров : Постоянный
Частота кадров : 23,976 (24000/1001) кадра/сек
Стандарт вещания : Component
Цветовое пространство : YUV
Субдискретизация насыщенности : 4:2:0
Битовая глубина : 8 бит
Тип развёртки : Прогрессивная
Бит/(Пиксели*Кадры) : 0.215
Размер потока : 2,61 Гбайт (91%)
Default : Да
Forced : Нет
Цветовой диапазон : Limited
Основные цвета : BT.709
Характеристики трансфера : BT.709
Коэффициенты матрицы : BT.709

Аудио
Идентификатор : 2
Формат : AC-3
Формат/Информация : Audio Coding 3
Расширение режима : CM (complete main)
Параметр Endianness формата : Big
Идентификатор кодека : A_AC3
Продолжительность : 1 ч. 18 м.
Вид битрейта : Постоянный
Битрейт : 384 Кбит/сек
Каналы : 2 канала
Расположение каналов : Front: L R
Частота : 48,0 КГц
Частота кадров : 31,250 кадров/сек (1536 spf)
Метод сжатия : С потерями
Размер потока : 216 Мбайт (7%)
Default : Да
Forced : Нет

pb.wtf



Скачать Сомниум через торрент https://d.radikal.ru/d41/1812/ce/3a5334465f52.jpg Скачать фильм Сомниум через торрент бесплантно в хорошем качестве Описание: Трое грабителей опрометчиво вламываются в роскошный загородный дом за легкой наживой. Казалось бы, ничего сложного, в доме ... 7 10 3
Торрент: Зарегистрирован [2018-12-02 07:50] · скачан: 57 раз
Статус: T временная
Размер: 2.88 GB
Как cкачать? Как скачать Сомниум через торрент | qTorrent

% Раздел Тема Автор DL S | L
T Фильмы (мультфильмы) cо спонсором показа (Новинки AVI/MKV) [ 1.37 GB ] Сомниум / Somnium [2018 WEB-DLRip] MVO ["Синема УС"] bober100 Скачать
1 | 0

28-11-2019 20:33  

Отключить всю рекламу на сайте

04-12-2018 19:39 Сомниум Скачать торрент  

11 лет не комментировал, но здесь пройти не могу. Досмотрел только,чтобы увидеть, насколько создатели фильма могут наплевать на зрителя. Это всё - слова больше не идут....pb.wtf



    Дорогой пользователь! Огромная просьба, поблагодарите релизера, оцените раздачу и оставьте свои комментарий, если Вы скачали Сомниум через торрент бесплатно! Внесите свою лепту в развитие PiratBit!
    Комментировать посты могут только пользователи прошедшие не сложную регистрацию
    Показать сообщения:    

    Сомниум через торрент
    Скачать бесплатно Сомниум
    Сомниум скачать торрент
    Сомниум смотреть онлайн
    Cкачать фильм Сомниум бесплатно
    Сомниум скачать торрент в хорошем качестве
    Сомниум смотреть онлайн бесплатно в хорошем качестве


    Вы не можете начинать темы
    Вы не можете отвечать на сообщения
    Вы не можете редактировать свои сообщения
    Вы не можете удалять свои сообщения
    Вы не можете голосовать в опросах
    Вы не можете прикреплять файлы к сообщениям
    Вы можете скачивать файлы