MEGA SALE -50% FORZA HORIZON 4 ULTIMATE+ВСЕ DLC+ОНЛАЙН всего за 599р. 299 руб. (супер цена). Внимание количество ограничено!!!

iTunes

1+1

iTunes

мы

iTunes

1

iTunes

Чернобыль

iTunes

Ральф против интернета

Лицензия

ПШазам

Лицензия

Игра престолов

Лицензия

30
pack

ВАЖНО

!!Акция!!

Alien_RageХит недели

RePack

Resident Evil 21

ИГРА 18+

pack

RePack

Metro:Exodus

!!Акция!!

Alien_Rage

RePack

fifa19

RePack

Assassins Creed: Odyssey

RePack

NEED FOR SPEED™ PAYBACK

3 сезон

9 сезон

Бесстыжие 9 сезон

Все сериалы

все сериалы на PB.wtf

RePack

FAR CRY 5
Ребята, катастрофически не хватает 7730р. для оплаты серверов за АВГУСТ (всвязи с блокировками трафик упал в 3 раза), 1-2р., выручайте.
  

Маленькая барабанщица / The Little Drummer Girl / Сезон: 1 / Серии 1-6 из 6 (Пак Чхан Ук / Park Chan-wook) [2018, триллер, драма, WEB-DLRip] [MVO] (TVShows) pb.wtf

Маленькая барабанщица через торрент pb.wtf

Размер: 5.73 GB | Добавлен: 9 мес. назад | Торрент скачан:11 раз
Скачать  

02-12-2018 09:12 Маленькая барабанщица Скачать торрент  

Маленькая барабанщица | The Little Drummer Girl
Год выпуска: 2018
Страна: Великобритания, США
Жанр: Триллер, драма
Продолжительность: 00:55:00
Перевод: Профессиональный (многоголосый закадровый) | TVShows
Режиссёр: Пак Чхан-ук

В ролях: Флоренс Пью, Александр Скарсгард, Майкл Шеннон, Майкл Мошонов, Симона Браун, Клер Холман, Кейт Самптер, Gennady Fleyscher, Амир Хури, Катарина Шюттлер и др.
Описание: На отдыхе в Греции молодая актриса Чарли знакомится с Беккером. Довольно скоро выясняется, что мужчиной движет не любовный интерес. Он — офицер израильской разведки, который втягивает Чарли в смертельно опасную борьбу западных спецслужб с терроризмом в Европе и на Ближнем Востоке.
rating скриншот  


Качество: WEB-DLRip
Формат: AVI
Видео: XVID, 720x400, 25.000 fps, ~2000 kbps avg, ~0.278 bit/pixel
Аудио Rus: AC3, 48.0 KHz, 6 channels, 384 kbps
Субтитры: отсутствуют
General
Format : AVI
Format/Info : Audio Video Interleave
File size : 958 MiB
Duration : 55 min 58 s
Overall bit rate : 2 393 kb/s
Writing application : VirtualDubMod 1.5.10.2 (build 2540/release)
Writing library : VirtualDubMod build 2540/release

Video
ID : 0
Format : MPEG-4 Visual
Format profile : Advanced Simple@L5
Format settings, BVOP : 1
Format settings, QPel : No
Format settings, GMC : No warppoints
Format settings, Matrix : Default (MPEG)
Codec ID : XVID
Codec ID/Hint : XviD
Duration : 55 min 58 s
Bit rate : 2 000 kb/s
Width : 720 pixels
Height : 400 pixels
Display aspect ratio : 16:9
Frame rate : 25.000 FPS
Color space : YUV
Chroma subsampling : 4:2:0
Bit depth : 8 bits
Scan type : Progressive
Compression mode : Lossy
Bits/(Pixel*Frame) : 0.278
Stream size : 801 MiB (84%)
Writing library : XviD 1.2.0.dev47 (UTC 2006-11-01)

Audio
ID : 1
Format : AC-3
Format/Info : Audio Coding 3
Mode extension : CM (complete main)
Format settings, Endianness : Big
Codec ID : 2000
Duration : 55 min 58 s
Bit rate mode : Constant
Bit rate : 384 kb/s
Channel(s) : 6 channels
Channel positions : Front: L C R, Side: L R, LFE
Sampling rate : 48.0 kHz
Frame rate : 31.250 FPS (1536 spf)
Bit depth : 16 bits
Compression mode : Lossy
Stream size : 154 MiB (16%)
Alignment : Split accross interleaves
Interleave, duration : 40 ms (1.00 video frame)
Interleave, preload duratio : 500 ms
скриншот  скриншот  скриншот  
pb.wtf



Скачать Маленькая барабанщица через торрент http://i98.fastpic.ru/big/2018/1105/79/c752de8d33a082295e4bbb5c42068279.jpg Скачать фильм Маленькая барабанщица через торрент бесплантно в хорошем качестве Описание: На отдыхе в Греции молодая актриса Чарли знакомится с Беккером. Довольно скоро выясняется, что мужчиной движет не любовный ... 10 10 1
Торрент: Зарегистрирован [2018-12-02 09:12] · скачан: 11 раз
Статус: √ проверено
Размер: 5.73 GB
Как cкачать? Как скачать Маленькая барабанщица через торрент | qTorrent

% Раздел Тема Автор DL S | L
Зарубежные сериалы [ 27.71 GB ] Маленькая барабанщица / The Little Drummer Girl / Сезон: 1 / Серии 1-6 из 6 [2018 WEB-DL 1080p] [DVO] killermax2013 Скачать
1 | 0
Видео для КПК и Смартфонов [ 1.28 GB ] Маленькая барабанщица / The Little Drummer Girl / Сезон: 1 / Серии 1-6 из 6 [2018 WEB-DLRip КПК] MVO [LostFilm] sergey82 Скачать
1 | 0
Зарубежные сериалы [ 25.94 GB ] Маленькая барабанщица / The Little Drummer Girl / Сезон: 1 / Серии: 1-6 из 6 [2018 WEBRip 1080p] [MVO] killermax2013 Скачать
2 | 0
Зарубежные сериалы [ 25.94 GB ] Маленькая барабанщица / The Little Drummer Girl / Сезон: 1 / Серии 1-6 из 6 [2018 WEB-DL 1080p] [MVO] killermax2013 Скачать
1 | 0
Зарубежные сериалы [ 8.97 GB ] Маленькая барабанщица / The Little Drummer Girl / Сезон: 1 / Серии 1-6 из 6 [2018 WEB-DL 720p] [DVO] killermax2013 Скачать
1 | 0
Зарубежные сериалы [ 4.26 GB ] Маленькая барабанщица / The Little Drummer Girl / Сезон: 1 / Серии 1-6 из 6 [2018 WEB-DLRip] [MVO] killermax2013 Скачать
3 | 0
Зарубежные сериалы [ 7.14 GB ] Маленькая барабанщица / The Little Drummer Girl / Сезон: 1 / Серии 1-6 из 6 [2018 WEB-DLRip 720p] [MVO] killermax2013 Скачать
1 | 0


>> Регистрируемся здесь <<






Отзывы и комментарии о схеме читаем и пишем здесь: ---> Отзывы и комментарии о схеме

Новые благодарочки в телеграм довольных пользователей:
скриншот   скриншот   скриншот   скриншот   скриншот
    Дорогой пользователь! Огромная просьба, поблагодарите релизера, оцените раздачу и оставьте свои комментарий, если Вы скачали Маленькая барабанщица через торрент бесплатно! Внесите свою лепту в развитие PiratBit!
    Комментировать посты могут только пользователи прошедшие не сложную регистрацию
    Показать сообщения:    

    Маленькая барабанщица через торрент
    Скачать бесплатно Маленькая барабанщица
    Маленькая барабанщица скачать торрент
    Маленькая барабанщица смотреть онлайн
    Cкачать фильм Маленькая барабанщица бесплатно
    Маленькая барабанщица скачать торрент в хорошем качестве
    Маленькая барабанщица смотреть онлайн бесплатно в хорошем качестве


    Вы не можете начинать темы
    Вы не можете отвечать на сообщения
    Вы не можете редактировать свои сообщения
    Вы не можете удалять свои сообщения
    Вы не можете голосовать в опросах
    Вы не можете прикреплять файлы к сообщениям
    Вы можете скачивать файлы