Ссылка на приватное зеркало нашего сайта всего за 1$. Внимание количество ограничено!!!

2 сезон

iTunes

1 сезон

1

2 сезон

2 сезон

iTunes

1 сезон

RePack

30

Ultimate

ВАЖНО

ИГРА 18+

pack

RePack

MK11
pack

Забери бонус

RePack

jed

!!Акция!!

Alien_Rage

RePack

fifa19

RePack

Assassins Creed: Odyssey

RePack

NEED FOR SPEED™ PAYBACK

4 сезон

9 сезон

Бесстыжие 9 сезон

Все сериалы

все сериалы на PB.wtf

RePack

FAR CRY 5
  

Лудермилк / Loudermilk / Сезон: 2 / Серии: 1-2 (10) (Питер Фаррелли) [2018, комедия, WEBRip 720p] [MVO] (Ozz) pb.wtf

Скачать  

02-12-2018 09:56 Лудермилк Скачать торрент  

Loudermilk - Second Season
Лудермилк - Второй сезон
Год выхода: 2018
Страна
: США
Жанр
: комедия
Продолжительность: ~30 мин
Перевод: Профессиональный (многоголосый закадровый) Ozz
Режиссер: Питер Фаррелли
В ролях: Джеки Флинн, Рон Ливингстон, Тимоти Уэббер, Брендан МакНамара, Лаура Меннелл, Аня Савчич, Марк Брэндон, Анна Галвин, Б.Дж. Харрисон, Тоби Левинс, Дэниэл Бэйкон и др.
Описание: Сериал рассказывает о жизни перманентно восстанавливающегося алкоголика Сэма Лудермилка — сквернослова с манией советчика и умением разрушать всё в своей жизни, считающего всех личными врагами и умеющего эффективно справляться только с одной ежедневной задачей — выпивкой.
| Sample
Роли озвучивают: | Алексей Серёгин, Иван Кузнецов, Маргарита Корш, Алексей Никитин и Станислав Черсков |
Автор перевода: | Александр Шумилов |
Подготовлено: Ozz
Качество: WEBRip 720p
Формат: mkv
Видео кодек: x264
Аудио кодек: AC3
Видео: 1280x720 at 23,976 fps, AVC, 3000 kbps avg, 0.139 b/pixel
Аудио #1: Russian 48.0 KHz, AC3 , 2 channels, 192 Kbps |Ozz|
Аудио #2: English 48.0 KHz, AAC , 2 channels, 128 Kbps |Original|
Субтитры: Russian (srt)

Присутствует ненормативная лексика!

Код:

Общее
Уникальный идентификатор                 : 209030970389082354745909657952089048477 (0x9D41E6885362EE8D8EF93F0312A4859D)
Полное имя                               : D:\Loudermilk.S02.720p.WEBRip.Rus.Eng.Ozz\Loudermilk.S02E01.720p.WEBRip.Rus.Eng.mkv
Формат                                   : Matroska
Версия формата                           : Version 4 / Version 2
Размер файла                             : 703 Мбайт
Продолжительность                        : 29 м. 33 с.
Общий поток                              : 3326 Кбит/сек
Дата кодирования                         : UTC 2018-11-07 14:45:17
Программа кодирования                    : mkvmerge v8.3.0 ('Over the Horizon') 64bit
Библиотека кодирования                   : libebml v1.3.1 + libmatroska v1.4.2

Видео
Идентификатор                            : 1
Формат                                   : AVC
Формат/Информация                        : Advanced Video Codec
Профиль формата                          : High@L3.1
Настройки формата                        : CABAC / 2 Ref Frames
Параметр CABAC формата                   : Да
Параметр RefFrames формата               : 2 кадра
Идентификатор кодека                     : V_MPEG4/ISO/AVC
Продолжительность                        : 29 м. 33 с.
Вид битрейта                             : Постоянный
Битрейт                                  : 3072 Кбит/сек
Ширина                                   : 1280 пикселей
Высота                                   : 720 пикселей
Соотношение сторон                       : 16:9
Режим частоты кадров                     : Постоянный
Частота кадров                           : 23,976 (23976/1000) кадра/сек
Частота кадров в оригинале               : 23,976 (24000/1001) кадра/сек
Цветовое пространство                    : YUV
Субдискретизация насыщенности            : 4:2:0
Битовая глубина                          : 8 бит
Тип развёртки                            : Прогрессивная
Бит/(Пиксели*Кадры)                      : 0.139
Размер потока                            : 635 Мбайт (90%)
Язык                                     : English
Default                                  : Да
Forced                                   : Нет
Цветовой диапазон                        : Limited
Основные цвета                           : BT.709
Характеристики трансфера                 : BT.709
Коэффициенты матрицы                     : BT.709

Аудио #1
Идентификатор                            : 2
Формат                                   : AC-3
Формат/Информация                        : Audio Coding 3
Идентификатор кодека                     : A_AC3
Продолжительность                        : 29 м. 33 с.
Вид битрейта                             : Постоянный
Битрейт                                  : 192 Кбит/сек
Каналы                                   : 2 канала
Расположение каналов                     : Front: L R
Частота                                  : 48,0 КГц
Частота кадров                           : 31,250 кадров/сек (1536 SPF)
Битовая глубина                          : 16 бит
Метод сжатия                             : С потерями
Размер потока                            : 40,6 Мбайт (6%)
Заголовок                                : MVO Ozz-tv
Язык                                     : Russian
ServiceKind/String                       : Complete Main
Default                                  : Да
Forced                                   : Нет

Аудио #2
Идентификатор                            : 3
Формат                                   : AAC
Формат/Информация                        : Advanced Audio Codec
Профиль формата                          : LC
Идентификатор кодека                     : A_AAC-2
Продолжительность                        : 29 м. 33 с.
Битрейт                                  : 126 Кбит/сек
Каналы                                   : 2 канала
Расположение каналов                     : Front: L R
Частота                                  : 44,1 КГц
Частота кадров                           : 43,066 кадра/сек (1024 SPF)
Метод сжатия                             : С потерями
Размер потока                            : 26,6 Мбайт (4%)
Язык                                     : English
Default                                  : Нет
Forced                                   : Нет

Текст
Идентификатор                            : 4
Формат                                   : UTF-8
Идентификатор кодека                     : S_TEXT/UTF8
Идентификатор кодека/Информация          : UTF-8 Plain Text
Продолжительность                        : 28 м. 49 с.
Битрейт                                  : 128 бит/сек
ElementCount                             : 468
Размер потока                            : 27,1 Кбайт (0%)
Заголовок                                : Александр Шумилов
Язык                                     : Russian
Default                                  : Нет
Forced                                   : Нет

Внимание! Раздача ведётся путём добавления новых серий; при каждом добавлении создаётся новый торрент. Чтобы начать докачку новой серии, пользователям необходимо сделать следующее:
(1) остановить скачивание,
(2) удалить старый торрент у себя из клиента (старые серии удалять не надо),
(3) скачать новый торрент и запустить его у себя в клиенте вместо старого, при этом указать клиенту путь в старую папку куда и должно происходить скачивание новых серий.

Ваш клиент при этом должен произвести хеширование (проверку) старой папки (если не производит сам - помогите ему сделать это), и будет докачивать только те серии которых у вас ещё нет. Старые серии при этом не удаляются, а продолжают раздаваться!

Eсли вы уже удалили старые серии, то предотвратить повторную закачку старых серий можно, отжав галочку в соответствующих местах при запуске нового торрента. По возможности, желательно не удалять старые серии как можно дольше чтобы релизёр не столько продолжал раздавать старые серии, а смог сконцентрироваться на новых.
pb.wtf



Торрент не зареган: Не зарегистрирован ||
Добавлен: 2018-12-02 09:56
Скачано: 0 раз
% Раздел Тема Автор DL S | L
Зарубежные сериалы [ 10.85 GB ] Лудермилк / Loudermilk / Сезон: 2 / Серии: 1-10 из 10 [2018 WEBRip 720p] [MVO] killermax2013 Скачать
1 | 0

28-11-2019 20:33  

Отключить всю рекламу на сайте

    Дорогой пользователь! Огромная просьба, поблагодарите релизера, оцените раздачу и оставьте свои комментарий, если Вы скачали Лудермилк через торрент бесплатно! Внесите свою лепту в развитие PiratBit!
    Комментировать посты могут только пользователи прошедшие не сложную регистрацию
    Показать сообщения:    

    Лудермилк через торрент
    Скачать бесплатно Лудермилк
    Лудермилк скачать торрент
    Лудермилк смотреть онлайн
    Cкачать фильм Лудермилк бесплатно
    Лудермилк скачать торрент в хорошем качестве
    Лудермилк смотреть онлайн бесплатно в хорошем качестве


    Вы не можете начинать темы
    Вы не можете отвечать на сообщения
    Вы не можете редактировать свои сообщения
    Вы не можете удалять свои сообщения
    Вы не можете голосовать в опросах
    Вы не можете прикреплять файлы к сообщениям
    Вы можете скачивать файлы