Ссылка на приватное зеркало нашего сайта всего за 1$. Внимание количество ограничено!!!

2 сезон

iTunes

1 сезон

1

2 сезон

2 сезон

iTunes

1 сезон

RePack

30

Новинка

ВАЖНО

ИГРА 18+

pack

RePack

MK11
pack

Забери бонус

RePack

jed

!!Акция!!

Alien_Rage

RePack

fifa19

RePack

Assassins Creed: Odyssey

RePack

NEED FOR SPEED™ PAYBACK

4 сезон

9 сезон

Бесстыжие 9 сезон

Все сериалы

все сериалы на PB.wtf

RePack

FAR CRY 5
  

Нарко: Мексика / Narcos: Mexico / Сезон: 1 / Серии: 1-10 из 10 (Карло Бернард, Крис Бренкето, Даг Миро) [2018, Драма, криминал, WEB-DLRip] MVO [Jaskier] pb.wtf

Нарко: Мексика через торрент pb.wtf

Размер: 7.83 GB | Добавлен: 1 год 11 мес. назад | Торрент скачан:91 раз
Скачать  

02-12-2018 11:45 Нарко: Мексика Скачать торрент  

Нарко: Мексика / Narcos: Mexico
Год выпуска: 2018
Страна: США
Жанр: Драма, криминал
Продолжительность: ~ 00:50:00
Перевод: Профессиональный (многоголосый) | Jaskier
Субтитры: отсутствуют

Режиссер: Карло Бернард, Крис Бренкето, Даг Миро

rating

В ролях:

Алисса Диас, Диего Луна, Майкл Пенья, Тереса Руис, Кларк Фриман, Марк Кубр, Андрес Альмейда, Хулио Седильо, Майк Дойл, Тесса Иа

Описание:

Американский остросюжетный драматический сериал «Нарко: Мексика» (Narcos: Mexico) является логическим продолжением сериала «Нарко» о жизни колумбийского наркобарона Пабло Эскобара. Мексика, 80-е годы XX века. Страну раздирает война нескольких наркокартелей, происходят постоянные убийства полицейских, а трафик наркотиков идет в США и другие страны. Картель Гвадалахара, один из его лидеров — Мигель Галлардо. Мигель объединяет людей в огромную структуру с сетью осведомителей и тайных агентов. В Гвадалахару из Калифорнии прибывает агент Управления США по контролю над наркотиками Кики Камарена вместе со своей семьей — женой Микой и тремя детьми. Он назначен на новую должность, и первым заданием Кики становится расследование дела местного картеля. Начав работу, Кики понимает, что его задание намного сложнее, чем он мог себе представить. В борьбе с наркотрафиком Камарена готов на все, однако и его противники понимают, что перед ними опасный враг.

Качество: WEB-DLRip
Формат: AVI

Видео: XviD, ~ 1500 kbps, 704x352 (2,000), 23.976 fps
Аудио#1 Rus: 48 kHz, MPEG Layer 3, 2 ch, ~128.00 kbps avg
Аудио#2 Eng: 48 kHz, MPEG Layer 3, 2 ch, ~128.00 kbps avg
скриншот  скриншот  скриншот  

Общее
Полное имя : G:\Jaskier\Narcos.Mexico Season 1 (WEB-DLRip l 400p l Jaskier)\Narcos.Mexico.S01E01.WEB-DLRip.Jaskier.avi
Формат : AVI
Формат/Информация : Audio Video Interleave
Размер файла : 865 Мбайт
Продолжительность : 57 м. 53 с.
Общий поток : 2088 Кбит/сек
Программа кодирования : VirtualDubMod 1.5.10.2 (build 2540/release)
Библиотека кодирования : VirtualDubMod build 2540/release

Видео
Идентификатор : 0
Формат : MPEG-4 Visual
Профиль формата : Advanced Simple@L5
Настройки формата : BVOP2
Параметр BVOP формата : 2
Параметр QPel формата : Нет
Параметр GMC формата : Без точки перехода
Параметр матрицы формата : Default (MPEG)
Идентификатор кодека : XVID
Идентификатор кодека/Подсказка : XviD
Продолжительность : 57 м. 53 с.
Битрейт : 1818 Кбит/сек
Ширина : 704 пикселя
Высота : 352 пикселя
Соотношение сторон : 2,000
Частота кадров : 23,976 (24000/1001) кадра/сек
Цветовое пространство : YUV
Субдискретизация насыщенности : 4:2:0
Битовая глубина : 8 бит
Тип развёртки : Прогрессивная
Метод сжатия : С потерями
Бит/(Пиксели*Кадры) : 0.306
Размер потока : 753 Мбайт (87%)
Библиотека кодирования : XviD 1.2.1 (UTC 2008-12-04)

Аудио #1
Идентификатор : 1
Формат : MPEG Audio
Версия формата : Version 1
Профиль формата : Layer 3
Настройки формата : Joint stereo / MS Stereo
Идентификатор кодека : 55
Идентификатор кодека/Подсказка : MP3
Продолжительность : 57 м. 53 с.
Вид битрейта : Постоянный
Битрейт : 128 Кбит/сек
Каналы : 2 канала
Частота : 48,0 КГц
Частота кадров : 41,667 кадра/сек (1152 SPF)
Метод сжатия : С потерями
Размер потока : 53,0 Мбайт (6%)
Выравнивание : Соединение по промежуткам
Продолжительность промежутка : 42 мс. (1,00 видеокадр)
Время предзагрузки промежутка : 504 мс.
Библиотека кодирования : LAME3.100
Настройки программы : -m j -V 4 -q 3 -lowpass 17 -b 128

Аудио #2
Идентификатор : 2
Формат : MPEG Audio
Версия формата : Version 1
Профиль формата : Layer 3
Настройки формата : Joint stereo / MS Stereo
Идентификатор кодека : 55
Идентификатор кодека/Подсказка : MP3
Продолжительность : 57 м. 53 с.
Вид битрейта : Постоянный
Битрейт : 128 Кбит/сек
Каналы : 2 канала
Частота : 48,0 КГц
Частота кадров : 41,667 кадра/сек (1152 SPF)
Метод сжатия : С потерями
Размер потока : 53,0 Мбайт (6%)
Выравнивание : Соединение по промежуткам
Продолжительность промежутка : 42 мс. (1,00 видеокадр)
Время предзагрузки промежутка : 504 мс.
Библиотека кодирования : LAME3.100
Настройки программы : -m j -V 4 -q 3 -lowpass 17 -b 128

pb.wtf



Скачать Нарко: Мексика через торрент https://i108.fastpic.ru/big/2018/1203/d9/6ae90f40858113a03552dac469501bd9.png Скачать фильм Нарко: Мексика через торрент бесплантно в хорошем качестве Описание: Американский остросюжетный драматический сериал «Нарко: Мексика» (Narcos: Mexico) является логическим продолжением сериала ... 10 10 3
Торрент: Зарегистрирован [2018-12-02 11:45] · скачан: 91 раз
Статус: √ проверено
Размер: 7.83 GB
Как cкачать? Как скачать Нарко: Мексика через торрент | qTorrent

% Раздел Тема Автор DL S | L
Зарубежные сериалы [ 3.64 GB ] Нарко: Мексика / Narcos: Mexico / Сезон: 2 / Серии: 1-3 из 10 [2020 WEBRip] DVO [Кубик в Кубе] bober100 Скачать
1 | 0
Зарубежные сериалы [ 26.01 GB ] Нарко: Мексика / Narcos: Mexico / Сезон: 2 / Серии: 1-10 из 10 [2020 WEB-DL 1080p] MVO [Jaskier] bober100 Скачать
1 | 0
Зарубежные сериалы [ 12.97 GB ] Нарко: Мексика / Narcos: Mexico / Сезон: 2 / Серии: 1-10 из 10 [2020 WEB-DL 720p] MVO [Jaskier] bober100 Скачать
1 | 0
Зарубежные сериалы [ 6.73 GB ] Нарко: Мексика / Narcos: Mexico / Сезон: 2 / Серии: 1-10 из 10 [2020 WEB-DLRip] MVO [Jaskier] bober100 Скачать
1 | 0
Зарубежные сериалы [ 14.77 GB ] Нарко: Мексика / Narcos: Mexico / Сезон: 2 / Серии: 1-10 из 10 [2020 WEB-DL 720p] MVO [TVShows] bober100 Скачать
1 | 0
Зарубежные сериалы [ 33.61 GB ] Нарко: Мексика / Narcos: Mexico / Сезон: 2 / Серии: 1-10 из 10 [2020 WEB-DL 1080p] MVO [LostFilm] bober100 Скачать
1 | 0
Зарубежные сериалы [ 27.82 GB ] Нарко: Мексика / Narcos: Mexico / Сезон: 2 / Серии: 1-10 из 10 [2020 WEB-DL 1080p] MVO [TVShows] bober100 Скачать
1 | 0

28-11-2019 20:33  

Отключить всю рекламу на сайте

    Дорогой пользователь! Огромная просьба, поблагодарите релизера, оцените раздачу и оставьте свои комментарий, если Вы скачали Нарко: Мексика через торрент бесплатно! Внесите свою лепту в развитие PiratBit!
    Комментировать посты могут только пользователи прошедшие не сложную регистрацию
    Показать сообщения:    

    Нарко: Мексика через торрент
    Скачать бесплатно Нарко: Мексика
    Нарко: Мексика скачать торрент
    Нарко: Мексика смотреть онлайн
    Cкачать фильм Нарко: Мексика бесплатно
    Нарко: Мексика скачать торрент в хорошем качестве
    Нарко: Мексика смотреть онлайн бесплатно в хорошем качестве


    Вы не можете начинать темы
    Вы не можете отвечать на сообщения
    Вы не можете редактировать свои сообщения
    Вы не можете удалять свои сообщения
    Вы не можете голосовать в опросах
    Вы не можете прикреплять файлы к сообщениям
    Вы можете скачивать файлы