Ссылка на приватное зеркало нашего сайта всего за 1$. Внимание количество ограничено!!!

2 сезон

iTunes

1 сезон

1

2 сезон

2 сезон

iTunes

1 сезон

RePack

30

Ultimate

ВАЖНО

ИГРА 18+

pack

RePack

MK11
pack

Забери бонус

RePack

jed

!!Акция!!

Alien_Rage

RePack

fifa19

RePack

Assassins Creed: Odyssey

RePack

NEED FOR SPEED™ PAYBACK

4 сезон

9 сезон

Бесстыжие 9 сезон

Все сериалы

все сериалы на PB.wtf

RePack

FAR CRY 5
  

Нарко: Мексика / Narcos: Mexico / Сезон: 1 / Серии: 1-10 из 10 (Карло Бернард, Крис Бренкето, Даг Миро) [2018, Драма, криминал, WEB-DL 720p] MVO [Jaskier] pb.wtf

Нарко: Мексика через торрент pb.wtf

Размер: 15.19 GB | Добавлен: 1 год 11 мес. назад | Торрент скачан:84 раза
Скачать  

02-12-2018 11:45 Нарко: Мексика Скачать торрент  

Нарко: Мексика / Narcos: Mexico
Год выпуска: 2018
Страна: США
Жанр: Драма, криминал
Продолжительность: ~ 00:50:00
Перевод: Профессиональный (многоголосый) | Jaskier
Субтитры: отсутствуют

Режиссер: Карло Бернард, Крис Бренкето, Даг Миро

rating

В ролях:

Алисса Диас, Диего Луна, Майкл Пенья, Тереса Руис, Кларк Фриман, Марк Кубр, Андрес Альмейда, Хулио Седильо, Майк Дойл, Тесса Иа

Описание:

Американский остросюжетный драматический сериал «Нарко: Мексика» (Narcos: Mexico) является логическим продолжением сериала «Нарко» о жизни колумбийского наркобарона Пабло Эскобара. Мексика, 80-е годы XX века. Страну раздирает война нескольких наркокартелей, происходят постоянные убийства полицейских, а трафик наркотиков идет в США и другие страны. Картель Гвадалахара, один из его лидеров — Мигель Галлардо. Мигель объединяет людей в огромную структуру с сетью осведомителей и тайных агентов. В Гвадалахару из Калифорнии прибывает агент Управления США по контролю над наркотиками Кики Камарена вместе со своей семьей — женой Микой и тремя детьми. Он назначен на новую должность, и первым заданием Кики становится расследование дела местного картеля. Начав работу, Кики понимает, что его задание намного сложнее, чем он мог себе представить. В борьбе с наркотрафиком Камарена готов на все, однако и его противники понимают, что перед ними опасный враг.

Качество: WEB-DL 720p
Формат: MKV

Видео: 1280x720 (16:9) | X264 | ~3320 kbps | 23.976 fps
Аудио#1 Rus: AC3, 48,0 КГц, 6 ch, 384 kbps - [RUS]
Аудио#2 Eng: AC3, 48,0 КГц, 6 ch, 384 kbps - [ENG]
скриншот  скриншот  скриншот  

Общее
Уникальный идентификатор : 147336766578532054859644774945173089190 (0x6ED80770E33C99C3D519858705692BA6)
Полное имя : G:\Jaskier\Narcos.Mexico Season 1 (WEB-DL l 720p l Jaskier)\Narcos.Mexico.S01E01.WEB-DL.720p.Jaskier.mkv
Формат : Matroska
Версия формата : Version 4 / Version 2
Размер файла : 1,64 Гбайт
Продолжительность : 57 м. 54 с.
Режим общего битрейта : Переменный
Общий поток : 4063 Кбит/сек
Дата кодирования : UTC 2018-11-30 12:49:12
Программа кодирования : mkvmerge v28.0.0 ('Voice In My Head') 64-bit
Библиотека кодирования : libebml v1.3.6 + libmatroska v1.4.9

Видео
Идентификатор : 1
Формат : AVC
Формат/Информация : Advanced Video Codec
Профиль формата : Main@L3.1
Настройки формата : CABAC / 3 Ref Frames
Параметр CABAC формата : Да
Параметр RefFrames формата : 3 кадра
Идентификатор кодека : V_MPEG4/ISO/AVC
Продолжительность : 57 м. 53 с.
Вид битрейта : Переменный
Битрейт : 3320 Кбит/сек
Максимальный битрейт : 4980 Кбит/сек
Ширина : 1280 пикселей
Высота : 720 пикселей
Соотношение сторон : 16:9
Режим частоты кадров : Постоянный
Частота кадров : 23,976 (24000/1001) кадра/сек
Цветовое пространство : YUV
Субдискретизация насыщенности : 4:2:0
Битовая глубина : 8 бит
Тип развёртки : Прогрессивная
Бит/(Пиксели*Кадры) : 0.150
Размер потока : 1,33 Гбайт (81%)
Библиотека кодирования : x264 core 148 r2715 7e75228
Настройки программы : cabac=1 / ref=3 / deblock=1:0:0 / analyse=0x1:0x111 / me=umh / subme=10 / psy=1 / psy_rd=1.00:0.00 / mixed_ref=1 / me_range=24 / chroma_me=1 / trellis=2 / 8x8dct=0 / cqm=0 / deadzone=21,11 / fast_pskip=1 / chroma_qp_offset=-2 / threads=6 / lookahead_threads=1 / sliced_threads=0 / nr=0 / decimate=1 / interlaced=0 / bluray_compat=0 / stitchable=1 / constrained_intra=0 / bframes=2 / b_pyramid=0 / b_adapt=2 / b_bias=0 / direct=3 / weightb=1 / open_gop=0 / weightp=2 / keyint=48 / keyint_min=25 / scenecut=0 / intra_refresh=0 / rc_lookahead=48 / rc=2pass / mbtree=1 / bitrate=3320 / ratetol=1.0 / qcomp=0.50 / qpmin=6 / qpmax=51 / qpstep=4 / cplxblur=20.0 / qblur=0.5 / vbv_maxrate=4980 / vbv_bufsize=6640 / nal_hrd=vbr / filler=0 / ip_ratio=1.40 / aq=1:1.00
Default : Да
Forced : Нет

Аудио #1
Идентификатор : 2
Формат : AC-3
Формат/Информация : Audio Coding 3
Идентификатор кодека : A_AC3
Продолжительность : 57 м. 54 с.
Вид битрейта : Постоянный
Битрейт : 384 Кбит/сек
Каналы : 6 каналов
Расположение каналов : Front: L C R, Side: L R, LFE
Частота : 48,0 КГц
Частота кадров : 31,250 кадров/сек (1536 SPF)
Битовая глубина : 16 бит
Метод сжатия : С потерями
Размер потока : 159 Мбайт (9%)
Язык : Russian
ServiceKind/String : Complete Main
Default : Да
Forced : Нет

Аудио #2
Идентификатор : 3
Формат : AC-3
Формат/Информация : Audio Coding 3
Идентификатор кодека : A_AC3
Продолжительность : 57 м. 54 с.
Вид битрейта : Постоянный
Битрейт : 384 Кбит/сек
Каналы : 6 каналов
Расположение каналов : Front: L C R, Side: L R, LFE
Частота : 48,0 КГц
Частота кадров : 31,250 кадров/сек (1536 SPF)
Битовая глубина : 16 бит
Метод сжатия : С потерями
Размер потока : 159 Мбайт (9%)
Язык : English
ServiceKind/String : Complete Main
Default : Нет
Forced : Нет

pb.wtf



Скачать Нарко: Мексика через торрент https://i108.fastpic.ru/big/2018/1203/d9/6ae90f40858113a03552dac469501bd9.png Скачать фильм Нарко: Мексика через торрент бесплантно в хорошем качестве Описание: Американский остросюжетный драматический сериал «Нарко: Мексика» (Narcos: Mexico) является логическим продолжением сериала ... 10 10 3
Info! Серебряная раздача, засчитывается только 50% скачанного.
Торрент: Зарегистрирован [2018-12-02 11:45] · скачан: 84 раз
Статус: √ проверено
Размер: 15.19 GB
Как cкачать? Как скачать Нарко: Мексика через торрент | qTorrent

% Раздел Тема Автор DL S | L
Зарубежные сериалы [ 3.64 GB ] Нарко: Мексика / Narcos: Mexico / Сезон: 2 / Серии: 1-3 из 10 [2020 WEBRip] DVO [Кубик в Кубе] bober100 Скачать
1 | 0
Зарубежные сериалы [ 26.01 GB ] Нарко: Мексика / Narcos: Mexico / Сезон: 2 / Серии: 1-10 из 10 [2020 WEB-DL 1080p] MVO [Jaskier] bober100 Скачать
1 | 0
Зарубежные сериалы [ 12.97 GB ] Нарко: Мексика / Narcos: Mexico / Сезон: 2 / Серии: 1-10 из 10 [2020 WEB-DL 720p] MVO [Jaskier] bober100 Скачать
1 | 0
Зарубежные сериалы [ 6.73 GB ] Нарко: Мексика / Narcos: Mexico / Сезон: 2 / Серии: 1-10 из 10 [2020 WEB-DLRip] MVO [Jaskier] bober100 Скачать
2 | 0
Зарубежные сериалы [ 14.77 GB ] Нарко: Мексика / Narcos: Mexico / Сезон: 2 / Серии: 1-10 из 10 [2020 WEB-DL 720p] MVO [TVShows] bober100 Скачать
1 | 0
Зарубежные сериалы [ 33.61 GB ] Нарко: Мексика / Narcos: Mexico / Сезон: 2 / Серии: 1-10 из 10 [2020 WEB-DL 1080p] MVO [LostFilm] bober100 Скачать
1 | 0
Зарубежные сериалы [ 27.82 GB ] Нарко: Мексика / Narcos: Mexico / Сезон: 2 / Серии: 1-10 из 10 [2020 WEB-DL 1080p] MVO [TVShows] bober100 Скачать
1 | 0

28-11-2019 20:33  

Отключить всю рекламу на сайте

    Дорогой пользователь! Огромная просьба, поблагодарите релизера, оцените раздачу и оставьте свои комментарий, если Вы скачали Нарко: Мексика через торрент бесплатно! Внесите свою лепту в развитие PiratBit!
    Комментировать посты могут только пользователи прошедшие не сложную регистрацию
    Показать сообщения:    

    Нарко: Мексика через торрент
    Скачать бесплатно Нарко: Мексика
    Нарко: Мексика скачать торрент
    Нарко: Мексика смотреть онлайн
    Cкачать фильм Нарко: Мексика бесплатно
    Нарко: Мексика скачать торрент в хорошем качестве
    Нарко: Мексика смотреть онлайн бесплатно в хорошем качестве


    Вы не можете начинать темы
    Вы не можете отвечать на сообщения
    Вы не можете редактировать свои сообщения
    Вы не можете удалять свои сообщения
    Вы не можете голосовать в опросах
    Вы не можете прикреплять файлы к сообщениям
    Вы можете скачивать файлы