Ссылка на приватное зеркало всего за 1$. Внимание количество ограничено!!!

OK

1+1

iTunes

мы

OK

1

WEB-DLRip

Джокер

Пифагор

Ведьмак / The Witcher сериал

iTunes

ПШазам

ОК

Оно 2

iTunes

30
pack

Вам бонус

ВАЖНО

!!Акция!!

Alien_RageХит недели

RePack

Resident Evil 21

ИГРА 18+

pack

RePack

jed

RePack

fifa19

RePack

Assassins Creed: Odyssey

RePack

NEED FOR SPEED™ PAYBACK

4 сезон

9 сезон

Бесстыжие 9 сезон

Все сериалы

все сериалы на PB.wtf

RePack

FAR CRY 5
  

Кристофер Робин / Christopher Robin (Марк Форстер) [2018, мультфильм, мюзикл, фэнтези, драма, комедия, приключения, семейный, BDRip-HEVC 1080p, (10bit)] DUB [Лицензия] pb.wtf

Кристофер Робин через торрент pb.wtf

Раздают: 1 [ 0 KB/s ]
Размер: 4.78 GB | Добавлен: 1 год 1 мес. назад | Торрент скачан:254 раза
Скачать  

02-12-2018 13:38 Кристофер Робин Скачать торрент  

Кристофер Робин / Christopher Robin
Год выпуска: 2018
Страна: США
Жанр: мультфильм, мюзикл, фэнтези, драма, комедия, приключения, семейный
Продолжительность: 01:43:56
Перевод: Дублированный | Лицензия
Субтитры: Русские

Режиссер: Марк Форстер

rating

В ролях:

Юэн МакГрегор, Хейли Этвелл, Бронте Кармайкл, Марк Гейтисс, Оливер Форд Дейвис, Ронки Адеколуэхо, Эдриан Скарборо, Роджер Эштон-Гриффитс, Кен Нвосу, Джон Даглиш

Описание:

В жизни повзрослевшего Кристофера Робина царит повседневная рутина. Однажды он встречает друга детства - медвежонка Винни. Вместе им предстоит вернуться в Стоакровый лес, чтобы не только отыскать потерявшихся друзей, но и вновь обрести счастье.

Качество: BDRip-HEVC 1080p
Формат: MKV

Видео: HEVC/H.265, 1920x804, 5468 Kbps, 10 bit
Аудио#1: AC3, 6 ch, 640 Kbps - Русский, Дублированный (Лицензия)
Аудио#2: AC3, 6 ch, 448 Kbps - Английский, Оригинал
скриншот  скриншот  скриншот  

Общее
Уникальный идентификатор : 279169923604958322475322452196626490729 (0xD2062BEA53EB5D7B728FD75CB6C36569)
Полное имя : D:\Christopher Robin (2018) BDRip 1080p [HEVC] 10bit.mkv
Формат : Matroska
Версия формата : Version 4 / Version 2
Размер файла : 4,78 Гбайт
Продолжительность : 1 ч. 43 м.
Общий поток : 6589 Кбит/сек
Название фильма : Кристофер Робин
Дата кодирования : UTC 2018-12-02 08:57:52
Программа кодирования : mkvmerge v25.0.0 ('Prog Noir') 64-bit
Библиотека кодирования : libebml v1.3.6 + libmatroska v1.4.9
Attachments : poster.jpg

Видео
Идентификатор : 1
Формат : HEVC
Формат/Информация : High Efficiency Video Coding
Идентификатор кодека : V_MPEGH/ISO/HEVC
Продолжительность : 1 ч. 43 м.
Битрейт : 5468 Кбит/сек
Ширина : 1920 пикселей
Высота : 804 пикселя
Соотношение сторон : 2,40:1
Режим частоты кадров : Постоянный
Частота кадров : 23,976 (24000/1001) кадра/сек
Цветовое пространство : YUV
Субдискретизация насыщенности : 4:2:0
Битовая глубина : 10 бит
Бит/(Пиксели*Кадры) : 0.145
Размер потока : 3,90 Гбайт (81%)
Библиотека кодирования : x265 2.8+74-fd517ae68f93:[Windows][GCC 7.3.0][64 bit] 10bit
Настройки программы : cpuid=1111039 / frame-threads=13 / numa-pools=12 / wpp / no-pmode / no-pme / no-psnr / no-ssim / log-level=3 / input-csp=1 / input-res=1920x804 / interlace=0 / total-frames=0 / level-idc=41 / high-tier=1 / uhd-bd=0 / ref=7 / allow-non-conformance / no-repeat-headers / annexb / no-aud / no-hrd / info / hash=0 / no-temporal-layers / no-open-gop / min-keyint=24 / keyint=240 / gop-lookahead=0 / bframes=9 / b-adapt=2 / b-pyramid / bframe-bias=0 / rc-lookahead=40 / lookahead-slices=5 / scenecut=40 / radl=0 / no-intra-refresh / ctu=64 / min-cu-size=8 / rect / amp / max-tu-size=32 / tu-inter-depth=1 / tu-intra-depth=1 / limit-tu=0 / rdoq-level=0 / dynamic-rd=0.00 / no-ssim-rd / signhide / no-tskip / nr-intra=0 / nr-inter=0 / no-constrained-intra / no-strong-intra-smoothing / max-merge=2 / limit-refs=3 / no-limit-modes / me=3 / subme=7 / merange=57 / temporal-mvp / weightp / no-weightb / no-analyze-src-pics / deblock=-2:-2 / no-sao / no-sao-non-deblock / rd=3 / no-early-skip / rskip / no-fast-intra / no-tskip-fast / no-cu-lossless / no-b-intra / no-splitrd-skip / rdpenalty=0 / psy-rd=2.00 / psy-rdoq=0.00 / no-rd-refine / no-lossless / cbqpoffs=0 / crqpoffs=0 / rc=crf / crf=18.0 / qcomp=0.60 / qpstep=4 / stats-write=0 / stats-read=0 / vbv-maxrate=50000 / vbv-bufsize=50000 / vbv-init=0.9 / crf-max=0.0 / crf-min=0.0 / ipratio=1.40 / pbratio=1.30 / aq-mode=1 / aq-strength=1.00 / cutree / zone-count=0 / no-strict-cbr / qg-size=32 / no-rc-grain / qpmax=69 / qpmin=0 / no-const-vbv / sar=1 / overscan=0 / videoformat=5 / range=0 / colorprim=1 / transfer=1 / colormatrix=1 / chromaloc=0 / display-window=0 / max-cll=0,0 / min-luma=0 / max-luma=1023 / log2-max-poc-lsb=8 / vui-timing-info / vui-hrd-info / slices=1 / no-opt-qp-pps / no-opt-ref-list-length-pps / no-multi-pass-opt-rps / scenecut-bias=0.05 / no-opt-cu-delta-qp / no-aq-motion / no-hdr / no-hdr-opt / no-dhdr10-opt / no-idr-recovery-sei / analysis-reuse-level=5 / scale-factor=0 / refine-intra=0 / refine-inter=0 / refine-mv=0 / no-limit-sao / ctu-info=0 / no-lowpass-dct / refine-mv-type=0 / copy-pic=1 / max-ausize-factor=1.0 / no-dynamic-refine / no-single-sei
Default : Да
Forced : Нет
Цветовой диапазон : Limited
Основные цвета : BT.709
Характеристики трансфера : BT.709
Коэффициенты матрицы : BT.709

Аудио #1
Идентификатор : 2
Формат : AC-3
Формат/Информация : Audio Coding 3
Расширение режима : CM (complete main)
Параметр Endianness формата : Big
Идентификатор кодека : A_AC3
Продолжительность : 1 ч. 43 м.
Вид битрейта : Постоянный
Битрейт : 640 Кбит/сек
Каналы : 6 каналов
Расположение каналов : Front: L C R, Side: L R, LFE
Частота : 48,0 КГц
Частота кадров : 31,250 кадров/сек (1536 spf)
Метод сжатия : С потерями
Размер потока : 476 Мбайт (10%)
Заголовок : Dub [License]
Язык : Russian
Default : Да
Forced : Да

Аудио #2
Идентификатор : 3
Формат : AC-3
Формат/Информация : Audio Coding 3
Расширение режима : CM (complete main)
Параметр Endianness формата : Big
Идентификатор кодека : A_AC3
Продолжительность : 1 ч. 43 м.
Вид битрейта : Постоянный
Битрейт : 448 Кбит/сек
Каналы : 6 каналов
Расположение каналов : Front: L C R, Side: L R, LFE
Частота : 48,0 КГц
Частота кадров : 31,250 кадров/сек (1536 spf)
Метод сжатия : С потерями
Размер потока : 333 Мбайт (7%)
Язык : English
Default : Нет
Forced : Нет

Текст
Идентификатор : 4
Формат : UTF-8
Идентификатор кодека : S_TEXT/UTF8
Идентификатор кодека/Информация : UTF-8 Plain Text
Заголовок : Forced
Язык : Russian
Default : Да
Forced : Да

Меню
00:00:00.000 : :Глава 1
00:14:02.007 : :Глава 2
00:28:16.277 : :Глава 3
00:42:17.243 : :Глава 4
00:56:43.274 : :Глава 5
01:10:44.949 : :Глава 6
01:25:22.158 : :Глава 7
01:37:49.363 : :Глава 8

pb.wtf



Скачать Кристофер Робин через торрент https://c.radikal.ru/c03/1811/e4/9231ba9875d0.png Скачать фильм Кристофер Робин через торрент бесплантно в хорошем качестве Описание: В жизни повзрослевшего Кристофера Робина царит повседневная рутина. Однажды он встречает друга детства - медвежонка Винни. Вместе ... 10 10 5
Info! Золотая раздача, скачанное не засчитывается.
Торрент: Зарегистрирован [2018-12-02 13:38] · скачан: 254 раз
Статус: √ проверено
Размер: 4.78 GB
Как cкачать? Как скачать Кристофер Робин через торрент | qTorrent

% Раздел Тема Автор DL S | L
Фильмы (Blu-ray, BD-Remux, HDDVD) [ 28.28 GB ] Кристофер Робин / Christopher Robin [2018 мультфильм мюзикл BD Remux 1080p] DUB [] bober100 Скачать
1 | 0
Фильмы [HD 720p, 1080p] (Хороший звук DUB, MVO) [ 5.92 GB ] Кристофер Робин / Christopher Robin [2018 мультфильм мюзикл BDRip 720p] DUB [] bober100 Скачать
1 | 0
Фильмы 2018 [DVDrip, WEB-DLRip, HDrip] (DUB, MVO) [ 745 MB ] Кристофер Робин / Christopher Robin [2018 мультфильм мюзикл BDRip] DUB [ BD EUR] bober100 Скачать
1 | 0
Фильмы [HD 720p, 1080p] (Хороший звук DUB, MVO) [ 11 GB ] Кристофер Робин / Christopher Robin [2018 мультфильм мюзикл BDRip 1080p] DUB [] bober100 Скачать
1 | 0
Фильмы 2018 [DVDrip, WEB-DLRip, HDrip] (DUB, MVO) [ 2.01 GB ] Кристофер Робин / Christopher Robin [2018 мультфильм мюзикл BDRip-AVC] DUB [] bober100 Скачать
2 | 0
Фильмы 2018 [DVDrip, WEB-DLRip, HDrip] (DUB, MVO) [ 1.46 GB ] Кристофер Робин / Christopher Robin [2018 мультфильм мюзикл BDRip] DUB [ BD EUR] bober100 Скачать
1 | 0
Фильмы 2018 [DVDrip, WEB-DLRip, HDrip] (DUB, MVO) [ 1.57 GB ] Кристофер Робин / Christopher Robin [2018 мультфильм BDRip-AVC] sheker187 Скачать
3 | 0

28-11-2019 20:33  

Отключить всю рекламу на сайте

    Дорогой пользователь! Огромная просьба, поблагодарите релизера, оцените раздачу и оставьте свои комментарий, если Вы скачали Кристофер Робин через торрент бесплатно! Внесите свою лепту в развитие PiratBit!
    Комментировать посты могут только пользователи прошедшие не сложную регистрацию
    Показать сообщения:    

    Кристофер Робин через торрент
    Скачать бесплатно Кристофер Робин
    Кристофер Робин скачать торрент
    Кристофер Робин смотреть онлайн
    Cкачать фильм Кристофер Робин бесплатно
    Кристофер Робин скачать торрент в хорошем качестве
    Кристофер Робин смотреть онлайн бесплатно в хорошем качестве


    Вы не можете начинать темы
    Вы не можете отвечать на сообщения
    Вы не можете редактировать свои сообщения
    Вы не можете удалять свои сообщения
    Вы не можете голосовать в опросах
    Вы не можете прикреплять файлы к сообщениям
    Вы можете скачивать файлы