Ссылка на приватное зеркало всего за 1$. Внимание количество ограничено!!!

OK

1+1

iTunes

мы

OK

1

WEB-DLRip

Джокер

Пифагор

Ведьмак / The Witcher сериал

Лицензия

ПШазам

ОК

Оно 2

iTunes

30
pack

Вам бонус

ВАЖНО

!!Акция!!

Alien_RageХит недели

RePack

Resident Evil 21

ИГРА 18+

pack

RePack

jed

!!Акция!!

Alien_Rage

RePack

fifa19

RePack

Assassins Creed: Odyssey

RePack

NEED FOR SPEED™ PAYBACK

4 сезон

9 сезон

Бесстыжие 9 сезон

Все сериалы

все сериалы на PB.wtf

RePack

FAR CRY 5
  

Тумбад / Tumbbad (Рахи Анил Барве, Адеш Прасад) [2018, Триллер, Ужасы, WEB-DL 720p] MVO ["Синема УС"] pb.wtf

Тумбад через торрент pb.wtf

Размер: 3.91 GB | Добавлен: 1 год 1 мес. назад | Торрент скачан:94 раза
Скачать  

02-12-2018 15:44 Тумбад Скачать торрент  

Тумбад / Tumbbad Год выпуска: 2018
Страна: Индия, Швеция
Жанр: Триллер, Ужасы
Продолжительность: 01:47:41
Перевод: Любительский (многоголосый) | "Синема УС"
Субтитры: отсутствуют

Режиссер: Рахи Анил Барве, Адеш Прасад

rating

В ролях:

Ронджини Чакраборти, Дипак Дамле, Анита Дате, Дхундирадж Прабхакар Джогалекар, Хэриш Ханна, Джоти Малше, Мохд Самад, Сохам Шах

Описание:

На заре веков Богиня-мать породила нескольких Богов, и самым любимым был её первенец — Хастад. Он решил, что всё золото мира должно принадлежать ему, за что был повержен другими Богами и почти уничтожен, но Богиня-мать спасла его и поместила в своё чрево. С тех пор люди забыли падшего Бога, не ставили ему алтари и не возносили молитвы.

Индия, начало XX века. Неподалеку от замшелой деревушки Тумбад живет внебрачный сын местного лорда по имени Винаяк. В их доме спит проклятая прабабка-ведьма, которую мать Винаяка должна кормить, чтобы та не проснулась и не съела детей, также ходят слухи, что где-то в этой местности хранятся несметные богатства. После смерти лорда мать вместе с сыном уезжает в большой город, взяв с него клятву никогда не возвращаться в Тумбад. Через несколько лет уже взрослый Винаяк приезжает в родные края с твёрдой уверенностью, что сокровища спрятаны в заброшенном замке почившего лорда.

Качество: WEB-DL 720p
Формат: MKV

Видео: h.264, 4 806 kb/s, 1280x544
Аудио#1: Русский, (AC3, 2 ch, 384 Кбит/с)
скриншот  скриншот  скриншот  

Общее
Уникальный идентификатор : 185905383841206318440697243198070467195 (0x8BDC13161E72C685B6EBE53E4BAC2A7B)
Полное имя : D:\Tumbbad.2018.P.WEB-DL.72Op_KOSHARA.mkv
Формат : Matroska
Версия формата : Version 2
Размер файла : 3,91 Гбайт
Продолжительность : 1 ч. 47 м.
Режим общего битрейта : Переменный
Общий поток : 5192 Кбит/сек
Дата кодирования : UTC 2018-12-02 08:24:58
Программа кодирования : mkvmerge v8.3.0 ('Over the Horizon') 64bit
Библиотека кодирования : libebml v1.3.1 + libmatroska v1.4.2

Видео
Идентификатор : 1
Формат : AVC
Формат/Информация : Advanced Video Codec
Профиль формата : High@L4.1
Параметр CABAC формата : Да
Параметр RefFrames формата : 4 кадра
Идентификатор кодека : V_MPEG4/ISO/AVC
Продолжительность : 1 ч. 47 м.
Вид битрейта : Переменный
Битрейт : 4806 Кбит/сек
Максимальный битрейт : 5500 Кбит/сек
Ширина : 1280 пикселей
Высота : 544 пикселя
Соотношение сторон : 2,35:1
Режим частоты кадров : Постоянный
Частота кадров : 23,976 (24000/1001) кадра/сек
Стандарт вещания : Component
Цветовое пространство : YUV
Субдискретизация насыщенности : 4:2:0
Битовая глубина : 8 бит
Тип развёртки : Прогрессивная
Бит/(Пиксели*Кадры) : 0.282
Размер потока : 3,54 Гбайт (91%)
Default : Да
Forced : Нет
Цветовой диапазон : Limited
Основные цвета : BT.709
Характеристики трансфера : BT.709
Коэффициенты матрицы : BT.709

Аудио
Идентификатор : 2
Формат : AC-3
Формат/Информация : Audio Coding 3
Расширение режима : CM (complete main)
Параметр Endianness формата : Big
Идентификатор кодека : A_AC3
Продолжительность : 1 ч. 47 м.
Вид битрейта : Постоянный
Битрейт : 384 Кбит/сек
Каналы : 2 канала
Расположение каналов : Front: L R
Частота : 48,0 КГц
Частота кадров : 31,250 кадров/сек (1536 spf)
Метод сжатия : С потерями
Размер потока : 296 Мбайт (7%)
Default : Да
Forced : Нет

pb.wtf



Скачать Тумбад через торрент http://img10.lostpic.net/2018/12/01/a491a35bc8da8124036f188230bafc7a.jpg Скачать фильм Тумбад через торрент бесплантно в хорошем качестве Описание: На заре веков Богиня-мать породила нескольких Богов, и самым любимым был её первенец — Хастад. Он решил, что всё золото мира ... 10 10 3
Торрент: Зарегистрирован [2018-12-02 15:44] · скачан: 94 раз
Статус: T временная
Размер: 3.91 GB
Как cкачать? Как скачать Тумбад через торрент | qTorrent

% Раздел Тема Автор DL S | L
T Фильмы (мультфильмы) cо спонсором показа (Новинки AVI/MKV) [ 1.37 GB ] Тумбад / Tumbbad [2018 WEB-DLRip] MVO ["Синема УС"] bober100 Скачать
1 | 0
Фильмы с авторской озвучкой [ 4.63 GB ] Тумбад / Tumbbad [2018 WEB-DL 1080p] AVO [А.Важенин ] bober100 Скачать
1 | 0
Фильмы с авторской озвучкой [ 1.62 GB ] Тумбад / Tumbbad [2018 WEB-DLRip-AVC] AVO [А.Важенин ] bober100 Скачать
1 | 0

28-11-2019 20:33  

Отключить всю рекламу на сайте


03-12-2018 01:31 Тумбад Скачать торрент  

Мега подозрительный рейтинг pb.wtf



    Дорогой пользователь! Огромная просьба, поблагодарите релизера, оцените раздачу и оставьте свои комментарий, если Вы скачали Тумбад через торрент бесплатно! Внесите свою лепту в развитие PiratBit!
    Комментировать посты могут только пользователи прошедшие не сложную регистрацию
    Показать сообщения:    

    Тумбад через торрент
    Скачать бесплатно Тумбад
    Тумбад скачать торрент
    Тумбад смотреть онлайн
    Cкачать фильм Тумбад бесплатно
    Тумбад скачать торрент в хорошем качестве
    Тумбад смотреть онлайн бесплатно в хорошем качестве


    Вы не можете начинать темы
    Вы не можете отвечать на сообщения
    Вы не можете редактировать свои сообщения
    Вы не можете удалять свои сообщения
    Вы не можете голосовать в опросах
    Вы не можете прикреплять файлы к сообщениям
    Вы можете скачивать файлы