Marvel's Avengers Deluxe Edition (супер цена) 159р. Внимание количество ограничено!!!

2 сезон

iTunes

iTunes

1

iTunes

iTunes

iTunes

WEBRip

iTunes

30
pack

Новость дня

ВАЖНО

!!Акция!!

Alien_RageХит недели

RePack

Horizon Zero Dawn

ИГРА 18+

pack

RePack

jed

!!Акция!!

Alien_Rage

RePack

fifa19

RePack

Assassins Creed: Odyssey

RePack

NEED FOR SPEED™ PAYBACK

4 сезон

9 сезон

Бесстыжие 9 сезон

Все сериалы

все сериалы на PB.wtf

RePack

FAR CRY 5
  

Насыщенный / Bodied (Джозеф Кан) [2017, Драма, комедия, музыка, WEB-DL 720p] MVO [@MUZOBOZ@] pb.wtf

Насыщенный через торрент pb.wtf

Размер: 4.53 GB | Добавлен: 1 год 9 мес. назад | Торрент скачан:12 раз
Скачать  

02-12-2018 16:03 Насыщенный Скачать торрент  

Насыщенный / Bodied Год выпуска: 2017
Страна: США
Жанр: Драма, комедия, музыка
Продолжительность: 02:03:11
Перевод: Любительский (многоголосый) | @MUZOBOZ@
Субтитры: отсутствуют

Режиссер: Джозеф Кан

rating

В ролях:

Кэлам Уорси, Джеки Лонг, Рори Упхолд, Джонатан Пак, Уолтер Перес, Шоникуа Шандай, Шарламань Та Бо, Дисастер, Дебра Уилсон, Энтони Майкл Холл

Описание:

Фильм режиссёра Джозефа Кана, снятый по сценарию Алекса Ларсена и спродюсированный Эминемом.
Аспирант Адам (Келам Уорти) становится конкурентноспособным баттл-рэпером после погружения в эту культуру во время работы над диссертацией на эту тему

Качество: WEB-DL 720p
Формат: MKV

Видео: h.264,4 884 kb/s, 1280x640
Аудио#1: Русский, (AC3, 2 ch, 384 Кбит/с)
скриншот  скриншот  скриншот  

Общее
Уникальный идентификатор : 239485726431908201183882268067867397778 (0xB42B45EF0CA4A2FA9E46EE7FB6040E92)
Полное имя : D:\Bodied.2018.P.WEB-DL.72Op_KOSHARA.mkv
Формат : Matroska
Версия формата : Version 2
Размер файла : 4,53 Гбайт
Продолжительность : 2 ч. 3 м.
Режим общего битрейта : Переменный
Общий поток : 5270 Кбит/сек
Дата кодирования : UTC 2018-12-01 01:31:45
Программа кодирования : mkvmerge v8.3.0 ('Over the Horizon') 64bit
Библиотека кодирования : libebml v1.3.1 + libmatroska v1.4.2

Видео
Идентификатор : 1
Формат : AVC
Формат/Информация : Advanced Video Codec
Профиль формата : High@L4.1
Параметр CABAC формата : Да
Параметр RefFrames формата : 4 кадра
Идентификатор кодека : V_MPEG4/ISO/AVC
Продолжительность : 2 ч. 3 м.
Вид битрейта : Переменный
Битрейт : 4884 Кбит/сек
Максимальный битрейт : 5500 Кбит/сек
Ширина : 1280 пикселей
Высота : 640 пикселей
Соотношение сторон : 2,000
Режим частоты кадров : Постоянный
Частота кадров : 23,976 (24000/1001) кадра/сек
Стандарт вещания : Component
Цветовое пространство : YUV
Субдискретизация насыщенности : 4:2:0
Битовая глубина : 8 бит
Тип развёртки : Прогрессивная
Бит/(Пиксели*Кадры) : 0.243
Размер потока : 4,11 Гбайт (91%)
Default : Да
Forced : Нет
Цветовой диапазон : Limited
Основные цвета : BT.709
Характеристики трансфера : BT.709
Коэффициенты матрицы : BT.709

Аудио
Идентификатор : 2
Формат : AC-3
Формат/Информация : Audio Coding 3
Расширение режима : CM (complete main)
Параметр Endianness формата : Big
Идентификатор кодека : A_AC3
Продолжительность : 2 ч. 3 м.
Вид битрейта : Постоянный
Битрейт : 384 Кбит/сек
Каналы : 2 канала
Расположение каналов : Front: L R
Частота : 48,0 КГц
Частота кадров : 31,250 кадров/сек (1536 spf)
Метод сжатия : С потерями
Размер потока : 338 Мбайт (7%)
Default : Да
Forced : Нет

pb.wtf



Скачать Насыщенный через торрент http://img14.lostpic.net/2018/12/02/b1f40f8a905e02f75eb3f782b6ed44c5.jpg Скачать фильм Насыщенный через торрент бесплантно в хорошем качестве Описание: Фильм режиссёра Джозефа Кана, снятый по сценарию Алекса Ларсена и спродюсированный Эминемом.Аспирант Адам (Келам Уорти) ... 10 10 2
Торрент: Зарегистрирован [2018-12-02 16:03] · скачан: 12 раз
Статус: T временная
Размер: 4.53 GB
Как cкачать? Как скачать Насыщенный через торрент | qTorrent

% Раздел Тема Автор DL S | L
T Фильмы (мультфильмы) cо спонсором показа (Новинки AVI/MKV) [ 5.02 GB ] Насыщенный / Bodied [2017 музыка WEB-DL 1080p] MVO [@MUZOBOZ@] bober100 Скачать
1 | 0
T Фильмы (мультфильмы) cо спонсором показа (Новинки AVI/MKV) [ 2.05 GB ] Насыщенный / Bodied [2017 музыка WEB-DLRip] MVO [@MUZOBOZ@] bober100 Скачать
1 | 0
T Фильмы (мультфильмы) cо спонсором показа (Новинки AVI/MKV) [ 1.37 GB ] Насыщенный / Bodied [2017 музыка WEB-DLRip] MVO [@MUZOBOZ@] bober100 Скачать
1 | 0

28-11-2019 20:33  

Отключить всю рекламу на сайте

    Дорогой пользователь! Огромная просьба, поблагодарите релизера, оцените раздачу и оставьте свои комментарий, если Вы скачали Насыщенный через торрент бесплатно! Внесите свою лепту в развитие PiratBit!
    Комментировать посты могут только пользователи прошедшие не сложную регистрацию
    Показать сообщения:    

    Насыщенный через торрент
    Скачать бесплатно Насыщенный
    Насыщенный скачать торрент
    Насыщенный смотреть онлайн
    Cкачать фильм Насыщенный бесплатно
    Насыщенный скачать торрент в хорошем качестве
    Насыщенный смотреть онлайн бесплатно в хорошем качестве


    Вы не можете начинать темы
    Вы не можете отвечать на сообщения
    Вы не можете редактировать свои сообщения
    Вы не можете удалять свои сообщения
    Вы не можете голосовать в опросах
    Вы не можете прикреплять файлы к сообщениям
    Вы можете скачивать файлы