Лицензия

MVO

1

1 сезон

Лицензия

Лицензия

13

MVO

1 сезон

Deluxe Edition

pack

Рекомендуем

30

Repack

ВАЖНО

ВАЖНО

Ghostwire

RePack

jed

RePack

fifa19

RePack

RDR2

RePack

NEED FOR SPEED™ PAYBACK

RePack

Кинопоиск HD

 Острые козырьки 6 сезон

6 сезон

FAR CRY 6

RePack

Лицензия

MVO

1

1 сезон

1 сезон

Лицензия

  

Медное солнце / Юбилейный встречный / Серии: 1-2 из 2 (Карен Оганесян) [2018, Драма, военный, WEBRip]

Медное солнце через торрент pb.wtf

Размер: 3.09 GB | Добавлен: 3 года 9 мес. назад | Торрент скачан:177 раз
Смотреть онлайн Медное солнце | Скачать   

02-12-2018 18:29 Медное солнце Скачать торрент  

Медное солнце / Юбилейный встречныйГод выпуска: 2018
Страна: Россия
Жанр: Драма, военный
Продолжительность: ~ 02:17:00
Субтитры: отсутствуют

Режиссер: Карен Оганесян



В ролях:

Владимир Машков, Микаэл Джанибекян, Ольга Медынич, Алексей Шевченков, Максим Емельянов, Сабина Ахмедова, Зарина Мухитдинова, Олег Галахов, Владимир Нисков

Описание:

1991-й год. Некогда единый и могучий Советский Союз раскалывается изнутри. Жители удалённого кишлака в Средней Азии с тревогой узнают новости о волнениях, прокатывающихся по стране. Но ведь здесь местные давно живут бок о бок с русскими. Герои нашей истории — музыканты полкового оркестра, отработавшие на свадьбе в дальнем ауле и вернувшиеся в часть к пустым баракам. Полк получил срочный приказ о передислокации и ушёл. В это время в горах появился отряд боевиков, перешедших границу для того, чтобы начать в стране гражданскую войну. И вместо того, чтобы догонять полк, музыканты, половина из которых ещё совсем мальчишки, остаются для защиты мира в посёлке. Это история про проверку на человечность, силу духа, умение устоять против волны ненависти и гнева, про любовь и, конечно, про музыку, которая побеждает там, где автоматы и танки бессильны.

Качество: WEBRip
Формат: AVI

Видео: XviD build 73, 720x304 (2.35:1), 25.000 fps, 1500 Kbps (0.275 bit/pixel)
Аудио: 48.0 kHz, AC3, 2/0 ch, 192 kbps
скриншот  скриншот  скриншот  скриншот  скриншот  

General
Complete name : D:RazdachiMednoe.Solnce.2018.XviD.WEBRip.GeneralFilmMednoe.Solnce.e01.avi
Format : AVI
Format/Info : Audio Video Interleave
File size : 1.63 GiB
Duration : 2 h 16 min
Overall bit rate : 1 708 kb/s
Writing application : VirtualDubMod 1.5.10.3 | www.virtualdub-fr.org || (build 2550/release)
Writing library : VirtualDubMod build 2550/release

Video
ID : 0
Format : MPEG-4 Visual
Format profile : Advanced [email protected]
Format settings, BVOP : 1
Format settings, QPel : No
Format settings, GMC : No warppoints
Format settings, Matrix : Custom
Codec ID : XVID
Codec ID/Hint : XviD
Duration : 2 h 16 min
Bit rate : 1 506 kb/s
Width : 720 pixels
Height : 304 pixels
Display aspect ratio : 2.35:1
Frame rate : 25.000 FPS
Color space : YUV
Chroma subsampling : 4:2:0
Bit depth : 8 bits
Scan type : Progressive
Compression mode : Lossy
Bits/(Pixel*Frame) : 0.275
Stream size : 1.44 GiB (88%)
Writing library : XviD 73

Audio
ID : 1
Format : AC-3
Format/Info : Audio Coding 3
Format settings, Endianness : Big
Codec ID : 2000
Duration : 2 h 16 min
Bit rate mode : Constant
Bit rate : 192 kb/s
Channel(s) : 2 channels
Channel positions : Front: L R
Sampling rate : 48.0 kHz
Frame rate : 31.250 FPS (1536 SPF)
Bit depth : 16 bits
Compression mode : Lossy
Stream size : 188 MiB (11%)
Alignment : Split accross interleaves
Interleave, duration : 40 ms (1.00 video frame)
Interleave, preload duratio : 500 ms
Service kind : Complete Main




Скачать Медное солнце через торрент https://i108.fastpic.ru/big/2018/1127/e8/3661730ac386712666a1124bf138d7e8.jpg Скачать, смотреть онлайн Медное солнце бесплантно в хорошем качестве Описание: 1991-й год. Некогда единый и могучий Советский Союз раскалывается изнутри. Жители удалённого кишлака в Средней Азии с тревогой ... 10 10 3
Торрент: Зарегистрирован [2018-12-02 18:29] · скачан: 177 раз
Статус: √ проверено
Размер: 3.09 GB
Как cкачать? Как скачать Медное солнце через торрент | UTorrent

% Раздел Тема Автор DL S | L
T Наши сериалы [ 3.55 GB ] Медное солнце / Серии 1-6 из 6 | | SATRip oleg8 Скачать
1 | 0
Наши сериалы [ 11.2 GB ] Медное солнце / Сезон: 1 / Серии: 2 из 2 | | 1080p Anonymous Скачать
1 | 0

28-11-2019 20:33  

Отключить вcю реклaмy на сайте

    Дорогой пользователь! Огромная просьба, поблагодарите релизера, оцените раздачу и оставьте свои комментарий, если Вы скачали Медное солнце через торрент бесплатно!!
    Комментировать посты могут только пользователи прошедшие не сложную регистрацию
    Показать сообщения:    


    Медное солнце через торрент
    Скачать бесплатно Медное солнце
    Медное солнце скачать торрент
    Медное солнце смотреть онлайн
    Cкачать фильм Медное солнце бесплатно
    Медное солнце скачать торрент в хорошем качестве
    Медное солнце смотреть онлайн бесплатно в хорошем качестве
    Вы не можете начинать темы
    Вы не можете отвечать на сообщения
    Вы не можете редактировать свои сообщения
    Вы не можете удалять свои сообщения
    Вы не можете голосовать в опросах
    Вы не можете прикреплять файлы к сообщениям
    Вы можете скачивать файлы