Ссылка на приватное зеркало нашего сайта всего за 1$. Внимание количество ограничено!!!

2 сезон

iTunes

1 сезон

1

2 сезон

2 сезон

iTunes

1 сезон

RePack

30

Ultimate

ВАЖНО

ИГРА 18+

pack

RePack

MK11
pack

Забери бонус

RePack

jed

!!Акция!!

Alien_Rage

RePack

fifa19

RePack

Assassins Creed: Odyssey

RePack

NEED FOR SPEED™ PAYBACK

4 сезон

9 сезон

Бесстыжие 9 сезон

Все сериалы

все сериалы на PB.wtf

RePack

FAR CRY 5
  

Большая легенда / Big Legend (Джастин Ли) [2018, боевик, триллер, WEBRip 1080p] MVO [HDRezka Studio] pb.wtf

Большая легенда через торрент pb.wtf

Размер: 3.79 GB | Добавлен: 1 год 11 мес. назад | Торрент скачан:102 раза
Скачать  

02-12-2018 19:00 Большая легенда Скачать торрент  

Большая легенда / Big Legend
Год выпуска: 2018
Страна: США
Жанр: боевик, триллер
Продолжительность: 01:29:15
Перевод: Профессиональный (многоголосый, закадровый) | HDRezka Studio
Субтитры: Английские (SDH)

Режиссер: Джастин Ли

rating

В ролях:

Кевин Макли, Тодд Робинсон, Аманда Уайсс, Лето Спиро, Эшли Платц, Эдриенн Барбо, Лэнс Хенриксен

Описание:

Тайлер отправляется в тихоокеанские северо-западные густые леса после того, как его невеста неожиданно пропала, отправившись туда на экспедицию. Там он встречает охотника, который решает помочь парню. Идя по стопам учёных, на которых они вышли, герои никак не ожидают, что легенды о Бигфуте окажутся правдивыми.

Качество: WEBRip 1080p
Формат: MKV

Видео: MPEG-4 AVC, 1920x800, 5500 Kбит/с, 23.976 кадр/с
Аудио#1: Русский ( АС3, 2ch, 192 Кбит/с, 48.0 KHz) Профессиональный (многоголосый, закадровый) HDRezka Studio
Аудио#2: Английский ( АС3, 6ch, 384 Кбит/с, 48.0 KHz)
скриншот  скриншот  скриншот  скриншот  скриншот  

General
Unique ID : 172139449023659304515918599558902940995 (0x8180DA194BFB2F6BA3430E0736698543)
Complete name : Big.Legend.2018.WEBRip.1080p.mkv
Format : Matroska
Format version : Version 4
File size : 3.79 GiB
Duration : 1 h 29 min
Overall bit rate : 6 076 kb/s
Encoded date : UTC 2018-12-02 18:18:08
Writing application : mkvmerge v7.1.0 ('Good Love') 64bit built on Jul 27 2014 13:06:55
Writing library : libebml v1.3.0 + libmatroska v1.4.1

Video
ID : 1
Format : AVC
Format/Info : Advanced Video Codec
Format profile : High@L4.1
Format settings : CABAC / 5 Ref Frames
Format settings, CABAC : Yes
Format settings, ReFrames : 5 frames
Codec ID : V_MPEG4/ISO/AVC
Duration : 1 h 29 min
Bit rate : 5 500 kb/s
Width : 1 920 pixels
Height : 800 pixels
Display aspect ratio : 2.40:1
Frame rate mode : Constant
Frame rate : 23.976 (24000/1001) FPS
Color space : YUV
Chroma subsampling : 4:2:0
Bit depth : 8 bits
Scan type : Progressive
Bits/(Pixel*Frame) : 0.149
Stream size : 3.43 GiB (90%)
Writing library : x264 core 148 r2638 7599210
Encoding settings : cabac=1 / ref=5 / deblock=1:-2:-2 / analyse=0x3:0x133 / me=umh / subme=10 / psy=1 / psy_rd=1.00:0.20 / mixed_ref=1 / me_range=32 / chroma_me=1 / trellis=2 / 8x8dct=1 / cqm=0 / deadzone=21,11 / fast_pskip=1 / chroma_qp_offset=-3 / threads=6 / lookahead_threads=1 / sliced_threads=0 / nr=0 / decimate=1 / interlaced=0 / bluray_compat=0 / constrained_intra=0 / bframes=10 / b_pyramid=2 / b_adapt=2 / b_bias=0 / direct=3 / weightb=1 / open_gop=0 / weightp=2 / keyint=250 / keyint_min=23 / scenecut=40 / intra_refresh=0 / rc_lookahead=60 / rc=2pass / mbtree=1 / bitrate=5500 / ratetol=1.0 / qcomp=0.60 / qpmin=0 / qpmax=69 / qpstep=4 / cplxblur=20.0 / qblur=0.5 / ip_ratio=1.40 / aq=1:1.00
Language : English
Default : Yes
Forced : No

Audio #1
ID : 2
Format : AC-3
Format/Info : Audio Coding 3
Commercial name : Dolby Digital
Codec ID : A_AC3
Duration : 1 h 29 min
Bit rate mode : Constant
Bit rate : 192 kb/s
Channel(s) : 2 channels
Channel layout : L R
Sampling rate : 48.0 kHz
Frame rate : 31.250 FPS (1536 SPF)
Bit depth : 16 bits
Compression mode : Lossy
Stream size : 123 MiB (3%)
Title : MVO | HDRezka Studio
Language : Russian
Service kind : Complete Main
Default : Yes
Forced : No

Audio #2
ID : 3
Format : AC-3
Format/Info : Audio Coding 3
Commercial name : Dolby Digital
Codec ID : A_AC3
Duration : 1 h 29 min
Bit rate mode : Constant
Bit rate : 384 kb/s
Channel(s) : 6 channels
Channel layout : L R C LFE Ls Rs
Sampling rate : 48.0 kHz
Frame rate : 31.250 FPS (1536 SPF)
Bit depth : 16 bits
Compression mode : Lossy
Stream size : 245 MiB (6%)
Language : English
Service kind : Complete Main
Default : No
Forced : No

Text #1
ID : 4
Format : UTF-8
Codec ID : S_TEXT/UTF8
Codec ID/Info : UTF-8 Plain Text
Duration : 1 h 27 min
Bit rate : 22 b/s
Count of elements : 551
Stream size : 14.7 KiB (0%)
Language : English
Default : No
Forced : No

Text #2
ID : 5
Format : UTF-8
Codec ID : S_TEXT/UTF8
Codec ID/Info : UTF-8 Plain Text
Duration : 1 h 27 min
Bit rate : 27 b/s
Count of elements : 676
Stream size : 17.3 KiB (0%)
Title : SDH
Language : English
Default : No
Forced : No

Menu
00:00:00.000 : en:1
00:05:27.452 : en:2
00:10:09.233 : en:3
00:15:30.846 : en:4
00:23:34.204 : en:5
00:27:09.002 : en:6
00:34:20.600 : en:7
00:41:05.880 : en:8
00:44:15.319 : en:9
00:49:40.602 : en:10
00:55:54.267 : en:11
00:59:31.901 : en:12
01:05:35.931 : en:13
01:12:20.335 : en:14
01:16:37.842 : en:15
01:21:58.412 : en:16

pb.wtf



Скачать Большая легенда через торрент http://img14.lostpic.net/2018/12/02/5a9a8eb0d67f2939f3dae206d17519e7.png Скачать фильм Большая легенда через торрент бесплантно в хорошем качестве Описание: Тайлер отправляется в тихоокеанские северо-западные густые леса после того, как его невеста неожиданно пропала, отправившись туда ... 8.3 10 4
Торрент: Зарегистрирован [2018-12-02 19:00] · скачан: 102 раз
Статус: T временная
Размер: 3.79 GB
Как cкачать? Как скачать Большая легенда через торрент | qTorrent

% Раздел Тема Автор DL S | L
T Фильмы (WEB-DL 720p, 1080p) [ 6.08 GB ] Большая легенда / Big Legend [2018 WEB-DL 1080p] [Amazon] MVO [HDRezka Studio] bober100 Скачать
1 | 0
T Фильмы 2018 [DVDrip, WEB-DLRip, HDrip] (DUB, MVO) [ 1.46 GB ] Большая легенда / Big Legend [2018 WEB-DLRip-AVC] MVO [HDRezka Studio] bober100 Скачать
1 | 0

28-11-2019 20:33  

Отключить всю рекламу на сайте

    Дорогой пользователь! Огромная просьба, поблагодарите релизера, оцените раздачу и оставьте свои комментарий, если Вы скачали Большая легенда через торрент бесплатно! Внесите свою лепту в развитие PiratBit!
    Комментировать посты могут только пользователи прошедшие не сложную регистрацию
    Показать сообщения:    

    Большая легенда через торрент
    Скачать бесплатно Большая легенда
    Большая легенда скачать торрент
    Большая легенда смотреть онлайн
    Cкачать фильм Большая легенда бесплатно
    Большая легенда скачать торрент в хорошем качестве
    Большая легенда смотреть онлайн бесплатно в хорошем качестве


    Вы не можете начинать темы
    Вы не можете отвечать на сообщения
    Вы не можете редактировать свои сообщения
    Вы не можете удалять свои сообщения
    Вы не можете голосовать в опросах
    Вы не можете прикреплять файлы к сообщениям
    Вы можете скачивать файлы