Ссылка на приватное зеркало нашего сайта всего за 1$. Внимание количество ограничено!!!

2 сезон

iTunes

iTunes

1

iTunes

iTunes

iTunes

WEBRip

iTunes

30
pack

Вам бонус

ВАЖНО

!!Акция!!

Alien_RageХит недели

RePack

Horizon Zero Dawn

ИГРА 18+

pack

RePack

jed

!!Акция!!

Alien_Rage

RePack

fifa19

RePack

Assassins Creed: Odyssey

RePack

NEED FOR SPEED™ PAYBACK

4 сезон

9 сезон

Бесстыжие 9 сезон

Все сериалы

все сериалы на PB.wtf

RePack

FAR CRY 5
  

Перерождение / Transition (Роб Берроуз) [2018, драма, мелодрама, WEB-DL 720p] MVO ["Синема УС"] pb.wtf

Перерождение через торрент pb.wtf

Размер: 2.87 GB | Добавлен: 1 год 9 мес. назад | Торрент скачан:5 раз
Скачать  

03-12-2018 06:42 Перерождение Скачать торрент  

Перерождение / TransitionГод выпуска: 2018
Страна: Великобритания
Жанр: драма, мелодрама
Продолжительность: 01:18:12
Перевод: Любительский (многоголосый) | "Синема УС"
Субтитры: отсутствуют

Режиссер: Роб Берроуз

rating

В ролях:

Рэйчел Тит, Зои Аллин, Барбара Франц, Джей Маллен, Линн Арчер, Джоанн Бенсли, Кара Бенсли, Дениз Берроуз, Роб Берроуз, Джо Эллис

Описание:

Сюжет фильма сосредоточен на трёх людях: Саре, Барбаре и Марке. Сара - бариста, которая души не чает в своем женихе Марке. Барбара ее мать, она надеется, что Марк поможет ей наладить отношения с дочерью, но в тоже время ее возмущает трепетная любовь Сары к парню. Когда Марк внезапно погибает, отношения матери и дочери становятся еще хуже. Этот фильм - история любви, которая превосходит реальный мир и силу человеческого характера.

Качество: WEB-DL 720p
Формат: MKV

Видео: h.264,4 869 kb/s, 1280x538
Аудио#1: Русский, (AC3, 2 ch, 384 Кбит/с)
скриншот  скриншот  скриншот  

Общее
Уникальный идентификатор : 229132334977395304098082332832867225303 (0xAC614852F8836052965F0A353DAF0ED7)
Полное имя : D:\Transition.2018.P.WEB-DL.72Op_KOSHARA.mkv
Формат : Matroska
Версия формата : Version 2
Размер файла : 2,87 Гбайт
Продолжительность : 1 ч. 18 м.
Режим общего битрейта : Переменный
Общий поток : 5255 Кбит/сек
Дата кодирования : UTC 2018-11-30 19:44:31
Программа кодирования : mkvmerge v8.3.0 ('Over the Horizon') 64bit
Библиотека кодирования : libebml v1.3.1 + libmatroska v1.4.2

Видео
Идентификатор : 1
Формат : AVC
Формат/Информация : Advanced Video Codec
Профиль формата : High@L4.1
Параметр CABAC формата : Да
Параметр RefFrames формата : 4 кадра
Идентификатор кодека : V_MPEG4/ISO/AVC
Продолжительность : 1 ч. 18 м.
Вид битрейта : Переменный
Битрейт : 4869 Кбит/сек
Максимальный битрейт : 5500 Кбит/сек
Ширина : 1280 пикселей
Высота : 538 пикселей
Соотношение сторон : 2,40:1
Режим частоты кадров : Постоянный
Частота кадров : 23,976 (24000/1001) кадра/сек
Стандарт вещания : Component
Цветовое пространство : YUV
Субдискретизация насыщенности : 4:2:0
Битовая глубина : 8 бит
Тип развёртки : Прогрессивная
Бит/(Пиксели*Кадры) : 0.289
Размер потока : 2,60 Гбайт (91%)
Default : Да
Forced : Нет
Цветовой диапазон : Limited
Основные цвета : BT.709
Характеристики трансфера : BT.709
Коэффициенты матрицы : BT.709

Аудио
Идентификатор : 2
Формат : AC-3
Формат/Информация : Audio Coding 3
Расширение режима : CM (complete main)
Параметр Endianness формата : Big
Идентификатор кодека : A_AC3
Продолжительность : 1 ч. 18 м.
Вид битрейта : Постоянный
Битрейт : 384 Кбит/сек
Каналы : 2 канала
Расположение каналов : Front: L R
Частота : 48,0 КГц
Частота кадров : 31,250 кадров/сек (1536 spf)
Метод сжатия : С потерями
Размер потока : 215 Мбайт (7%)
Default : Да
Forced : Нет

pb.wtf



Скачать Перерождение через торрент https://a.radikal.ru/a04/1812/b9/13b647313fc2.jpg Скачать фильм Перерождение через торрент бесплантно в хорошем качестве Описание: Сюжет фильма сосредоточен на трёх людях: Саре, Барбаре и Марке. Сара - бариста, которая души не чает в своем женихе Марке. ... 9.7 10 3
Торрент: Зарегистрирован [2018-12-03 06:42] · скачан: 5 раз
Статус: T временная
Размер: 2.87 GB
Как cкачать? Как скачать Перерождение через торрент | qTorrent

% Раздел Тема Автор DL S | L
T Фильмы (мультфильмы) cо спонсором показа (Новинки AVI/MKV) [ 1.37 GB ] Перерождение / Transition [2018 WEB-DLRip] MVO ["Синема УС"] bober100 Скачать
1 | 0

28-11-2019 20:33  

Отключить всю рекламу на сайте

    Дорогой пользователь! Огромная просьба, поблагодарите релизера, оцените раздачу и оставьте свои комментарий, если Вы скачали Перерождение через торрент бесплатно! Внесите свою лепту в развитие PiratBit!
    Комментировать посты могут только пользователи прошедшие не сложную регистрацию
    Показать сообщения:    

    Перерождение через торрент
    Скачать бесплатно Перерождение
    Перерождение скачать торрент
    Перерождение смотреть онлайн
    Cкачать фильм Перерождение бесплатно
    Перерождение скачать торрент в хорошем качестве
    Перерождение смотреть онлайн бесплатно в хорошем качестве


    Вы не можете начинать темы
    Вы не можете отвечать на сообщения
    Вы не можете редактировать свои сообщения
    Вы не можете удалять свои сообщения
    Вы не можете голосовать в опросах
    Вы не можете прикреплять файлы к сообщениям
    Вы можете скачивать файлы