Ссылка на приватное зеркало нашего сайта всего за 1$. Внимание количество ограничено!!!

2 сезон

iTunes

1 сезон

1

iTunes

iTunes

iTunes

1 сезон

RePack

30

ИГРА 18+

pack

ВАЖНО

!!Акция!!

Alien_RageХит недели

RePack

MK11
pack

Забери бонус

RePack

jed

!!Акция!!

Alien_Rage

RePack

fifa19

RePack

Assassins Creed: Odyssey

RePack

NEED FOR SPEED™ PAYBACK

4 сезон

9 сезон

Бесстыжие 9 сезон

Все сериалы

все сериалы на PB.wtf

RePack

FAR CRY 5
  

Тайны госпожи Кирсановой / Сезон: 1 / Серии: 1-50 из 50 (Сергей Мезенцев, Виталий Бордачев) [2018, Детектив, история, SATRip] pb.wtf

Тайны госпожи Кирсановой через торрент pb.wtf

Размер: 32.83 GB | Добавлен: 1 год 9 мес. назад | Торрент скачан:42 раза
Скачать  

03-12-2018 06:48 Тайны госпожи Кирсановой Скачать торрент  

Тайны госпожи Кирсановой Год выпуска: 2018
Страна: Россия
Жанр: Детектив, история
Продолжительность: ~ 00:49:53
Субтитры: отсутствуют

Режиссер: Сергей Мезенцев, Виталий Бордачев



В ролях:

Ольга Лерман, Антон Батырев, Евгений Шириков, Ольга Плешкова, Евгения Симонова, Иван Шабалтас, Максим Битюков, Николай Денисов, Арсений Сергеев, Марина Мезенцева, Иван Рыжиков, Анна Соловейчик, Александр Бобров, Софья Зайка

Описание:

1878 год. В небольшой уездный город Богородск приезжает молодая учительница математики Лариса Дмитриевна Кирсанова. Госпожу Кирсанову привело сюда желание разыскать своего жениха – молодого дворянина Павла Бестужева, который таинственно исчез за день до венчания, не попрощавшись и не оставив даже письма. Павел родом из Богородска, в котором из родных осталась только старушка мать. Здесь же проживает и любимая тетка Ларисы – Лизавета Прокофьевна. Тем временем после окончания русско-турецкой войны с Балкан возвращаются участники боевых сражений. Город ликует, встречая героев!..

Качество: SATRip
Формат: AVI

Видео: XviD , ~ 1 800 Кбит/с, 720x400
Аудио: MP3, 2 ch, 128 Кбит/с
скриншот  скриншот  скриншот  скриншот  

Общее
Полное имя : D:\Тайны госпожи Кирсановой\Тайны госпожи Кирсановой 01 серия.avi
Формат : AVI
Формат/Информация : Audio Video Interleave
Размер файла : 682 Мбайт
Продолжительность : 49 м. 12 с.
Общий поток : 1938 Кбит/сек
Программа кодирования : VirtualDubMod 1.5.10.2 (build 2540/release)
Библиотека кодирования : VirtualDubMod build 2540/release

Видео
Идентификатор : 0
Формат : MPEG-4 Visual
Профиль формата : Advanced Simple@L5
Параметр BVOP формата : 2
Параметр QPel формата : Нет
Параметр GMC формата : Без точки перехода
Параметр матрицы формата : Default (H.263)
Идентификатор кодека : XVID
Идентификатор кодека/Подсказка : XviD
Продолжительность : 49 м. 12 с.
Битрейт : 1800 Кбит/сек
Ширина : 720 пикселей
Высота : 400 пикселей
Соотношение сторон : 16:9
Частота кадров : 25,000 кадров/сек
Цветовое пространство : YUV
Субдискретизация насыщенности : 4:2:0
Битовая глубина : 8 бит
Тип развёртки : Прогрессивная
Метод сжатия : С потерями
Бит/(Пиксели*Кадры) : 0.250
Размер потока : 634 Мбайт (93%)
Библиотека кодирования : XviD 1.2.1 (UTC 2008-12-04)

Аудио
Идентификатор : 1
Формат : MPEG Audio
Версия формата : Version 1
Профиль формата : Layer 3
Режим : Joint stereo
Расширение режима : MS Stereo
Идентификатор кодека : 55
Идентификатор кодека/Подсказка : MP3
Продолжительность : 49 м. 12 с.
Вид битрейта : Постоянный
Битрейт : 128 Кбит/сек
Каналы : 2 канала
Частота : 48,0 КГц
Метод сжатия : С потерями
Задержка видео : 16 мс.
Размер потока : 45,1 Мбайт (7%)
Выравнивание : Разделение по промежуткам
Продолжительность промежутка : 40 мс. (1,00 видеокадр)
Время предзагрузки промежутка : 500 мс.
Библиотека кодирования : LAME3.99.ЁВLsBµи“п4Љ

Когда раздача ведётся путём добавления новых серий, при каждом добавлении создётся новый торрент. Чтобы начать докачку новой серии, пользователям необходимо сделать следующее:
(1) остановить скачивание,
(2) удалить старый торрент у себя из клиента (старые серии удалять не надо),
(3) скачать новый торрент и запустить его у себя в клиенте вместо старого, при этом указать клиенту путь в старую папку, куда и должно происходить скачивание новых серий.
Ваш клиент при этом должен произвести хеширование (проверку) старой папки (если не производит сам - помогите ему сделать это), и будет докачивать только те серии, которых у вас ещё нет. Старые серии при этом не удаляются, а продолжают раздаваться!
Eсли вы уже удалили старые серии, то предотвратить повторную закачку старых серий можно, отжав галочку в соответсвующих местах при запуске нового торрента. По возможности, желательно не удалять старые серии как можно дольше, чтобы релизёр не столько продолжал раздавать старые серии, а смог сконцентрироваться на новых.
pb.wtf



Скачать Тайны госпожи Кирсановой через торрент http://img14.lostpic.net/2018/12/03/a4e59c713ffe238eb5d502e3314172d4.jpg Скачать фильм Тайны госпожи Кирсановой через торрент бесплантно в хорошем качестве Описание: 1878 год. В небольшой уездный город Богородск приезжает молодая учительница математики Лариса Дмитриевна Кирсанова. Госпожу ... 8.8 10 12
Info! Золотая раздача, скачанное не засчитывается.
Торрент: Зарегистрирован [2019-01-18 15:38] · скачан: 42 раз
Статус: √ проверено
Размер: 32.83 GB
Как cкачать? Как скачать Тайны госпожи Кирсановой через торрент | qTorrent

% Раздел Тема Автор DL S | L
Наши сериалы [ 39.42 GB ] Тайны госпожи Кирсановой / Сезон: 1 / Серии: 1-50 из 50 [2018 история HDTVRip 720p] bober100 Скачать
1 | 0
Наши сериалы [ 30.46 GB ] Тайны госпожи Кирсановой / Сезон: 1 / Серии: 1-50 из 50 [2018 WEBRip] bober100 Скачать
1 | 0


Последний раз редактировалось: bober100 (2019-01-18 15:38), всего редактировалось 2 раз(а)

28-11-2019 20:33  

Отключить всю рекламу на сайте

16-01-2019 12:38 Тайны госпожи Кирсановой Скачать торрент  

Где предупреждение о наличии рекламы?pb.wtf



20-01-2019 17:24 Тайны госпожи Кирсановой Скачать торрент  

Меня тоже возмутило. Почему не написано что с рекламой КАЗИНО.pb.wtf



    Дорогой пользователь! Огромная просьба, поблагодарите релизера, оцените раздачу и оставьте свои комментарий, если Вы скачали Тайны госпожи Кирсановой через торрент бесплатно! Внесите свою лепту в развитие PiratBit!
    Комментировать посты могут только пользователи прошедшие не сложную регистрацию
    Показать сообщения:    

    Тайны госпожи Кирсановой через торрент
    Скачать бесплатно Тайны госпожи Кирсановой
    Тайны госпожи Кирсановой скачать торрент
    Тайны госпожи Кирсановой смотреть онлайн
    Cкачать фильм Тайны госпожи Кирсановой бесплатно
    Тайны госпожи Кирсановой скачать торрент в хорошем качестве
    Тайны госпожи Кирсановой смотреть онлайн бесплатно в хорошем качестве


    Вы не можете начинать темы
    Вы не можете отвечать на сообщения
    Вы не можете редактировать свои сообщения
    Вы не можете удалять свои сообщения
    Вы не можете голосовать в опросах
    Вы не можете прикреплять файлы к сообщениям
    Вы можете скачивать файлы