Ссылка на приватное зеркало всего за 1$. Внимание количество ограничено!!!

iTunes

iTunes

iTunes

1

iTunes

iTunes

iTunes

iTunes

iTunes

30
pack

$ от Little Big

ВАЖНО

!!Акция!!

Alien_RageХит недели

RePack

Resident Evil 21

ИГРА 18+

pack

RePack

jed

!!Акция!!

Alien_Rage

RePack

fifa19

RePack

Assassins Creed: Odyssey

RePack

NEED FOR SPEED™ PAYBACK

4 сезон

9 сезон

Бесстыжие 9 сезон

Все сериалы

все сериалы на PB.wtf

RePack

FAR CRY 5
  

Пришелец (Александр Куликов) [2018, приключения, фантастика, драма, WEB-DLRip] [iTunes] pb.wtf

Пришелец через торрент pb.wtf

Размер: 745 MB | Добавлен: 1 год 6 мес. назад | Торрент скачан:287 раз
Скачать  

03-12-2018 08:23 Пришелец Скачать торрент  

Пришелец Год выпуска: 2018
Страна: Россия
Жанр: приключения, фантастика, драма
Продолжительность: 01:31:04
Перевод: Не требуется | iTunes
Субтитры: отсутствуют

Режиссер: Александр Куликов

rating

В ролях:

Андрей Смоляков, Юрий Цурило, Григорий Сиятвинда, Максим Виторган, Александр Куликов, Анна Банщикова, Евгения Шипова

Описание:

В результате цепи трагических случайностей на далекой планете в одиночестве оказывается космонавт. Его жизнь находится в постоянной опасности. Нечто необъяснимое, вступившее с ним в контакт, навсегда изменит его. С этой минуты он станет потерянным и для себя и для людей.

И сколько раз ему придется умереть, чтобы доказать, что он жив...

Качество: WEB-DLRip
Формат: AVI

Видео: XviD build 73, 688x288 (2.40:1), 23.976 fps, 1007 Kbps (0.212 bit/pixel)
Аудио: 48.0 kHz, MP3, 2/0 ch, 128 kbps
скриншот  скриншот  скриншот  скриншот  

General
Complete name : D:RazdachiPrishelec.2018.XviD.WEB-DLRip.GeneralFilm.avi
Format : AVI
Format/Info : Audio Video Interleave
File size : 745 MiB
Duration : 1 h 31 min
Overall bit rate : 1 144 kb/s
Writing application : VirtualDubMod 1.5.10.3 | www.virtualdub-fr.org || (build 2550/release)
Writing library : VirtualDubMod build 2550/release

Video
ID : 0
Format : MPEG-4 Visual
Format profile : Advanced Simple@L5
Format settings, BVOP : 1
Format settings, QPel : No
Format settings, GMC : No warppoints
Format settings, Matrix : Custom
Codec ID : XVID
Codec ID/Hint : XviD
Duration : 1 h 31 min
Bit rate : 1 007 kb/s
Width : 688 pixels
Height : 288 pixels
Display aspect ratio : 2.40:1
Frame rate : 23.976 (24000/1001) FPS
Color space : YUV
Chroma subsampling : 4:2:0
Bit depth : 8 bits
Scan type : Progressive
Compression mode : Lossy
Bits/(Pixel*Frame) : 0.212
Stream size : 656 MiB (88%)
Writing library : XviD 73

Audio
ID : 1
Format : MPEG Audio
Format version : Version 1
Format profile : Layer 3
Codec ID : 55
Codec ID/Hint : MP3
Duration : 1 h 31 min
Bit rate mode : Constant
Bit rate : 128 kb/s
Channel(s) : 2 channels
Sampling rate : 48.0 kHz
Compression mode : Lossy
Stream size : 83.4 MiB (11%)
Alignment : Aligned on interleaves
Interleave, duration : 42 ms (1.00 video frame)
Interleave, preload duratio : 504 ms
Writing library : LAME3.99r
Encoding settings : -m s -V 4 -q 2 -lowpass 17 -b 128

pb.wtf



Скачать Пришелец через торрент https://c.radikal.ru/c39/1812/57/df684875e44c.png Скачать фильм Пришелец через торрент бесплантно в хорошем качестве Описание: В результате цепи трагических случайностей на далекой планете в одиночестве оказывается космонавт. Его жизнь находится в ... 8.7 10 9
Info! Золотая раздача, скачанное не засчитывается.
Торрент: Зарегистрирован [2018-12-03 08:23] · скачан: 287 раз
Статус: √ проверено
Размер: 745 MB
Как cкачать? Как скачать Пришелец через торрент | qTorrent

% Раздел Тема Автор DL S | L
Наши фильмы (Blu-ray, BD-Remux, HDDVD) [ 30.21 GB ] Пришелец [2018 Blu-ray 1080p] [GER Transfer / ] bober100 Скачать
1 | 0
Наши новые фильмы 2018-2019 [ 1.42 GB ] Пришелец [2018 BDRip-AVC] [] bober100 Скачать
1 | 0
Наши новые фильмы 2018-2019 [ 1.46 GB ] Пришелец [2018 BDRip] [ Blu-Ray GER] bober100 Скачать
4 | 0
Ultra HD (UHD: 2K, 4K, 8K) — видео сверхвысокой чёткости [ 10.43 GB ] Пришелец [2018 UHD WEB-DL 2160p] [SDR] sheker187 Скачать
1 | 0
Наши фильмы (HD, WEB-DL 720p, 1080p) [ 3.12 GB ] Пришелец [2018 WEB-DL 1080p] bober100 Скачать
5 | 0
Фантастика, фентези, мистика, ужасы [ 2 MB ] Владислав Кулигин - Пришелец из рая FB2 sahambar Скачать
1 | 0
Клипы [ 277 MB ] Quest Pistols Show - Пришелец [2015 Dance WEB-DL 1080p] opupokin Скачать
1 | 0

28-11-2019 20:33  

Отключить всю рекламу на сайте

03-12-2018 09:47 Пришелец Скачать торрент  

чет довольно шустро айтюнс объявился. настораживает. но спасибоpb.wtf



03-12-2018 10:32 Пришелец Скачать торрент  

бред писецpb.wtf



04-12-2018 09:03 Пришелец Скачать торрент  

Полная чушь! Бред!pb.wtf



    Дорогой пользователь! Огромная просьба, поблагодарите релизера, оцените раздачу и оставьте свои комментарий, если Вы скачали Пришелец через торрент бесплатно! Внесите свою лепту в развитие PiratBit!
    Комментировать посты могут только пользователи прошедшие не сложную регистрацию
    Показать сообщения:    

    Пришелец через торрент
    Скачать бесплатно Пришелец
    Пришелец скачать торрент
    Пришелец смотреть онлайн
    Cкачать фильм Пришелец бесплатно
    Пришелец скачать торрент в хорошем качестве
    Пришелец смотреть онлайн бесплатно в хорошем качестве


    Вы не можете начинать темы
    Вы не можете отвечать на сообщения
    Вы не можете редактировать свои сообщения
    Вы не можете удалять свои сообщения
    Вы не можете голосовать в опросах
    Вы не можете прикреплять файлы к сообщениям
    Вы можете скачивать файлы