Ссылка на приватное зеркало всего за 1$. Внимание количество ограничено!!!

iTunes

iTunes

iTunes

1

iTunes

iTunes

iTunes

WEBRip

iTunes

30
pack

$ от Little Big

ВАЖНО

!!Акция!!

Alien_RageХит недели

RePack

Resident Evil 21

ИГРА 18+

pack

RePack

jed

!!Акция!!

Alien_Rage

RePack

fifa19

RePack

Assassins Creed: Odyssey

RePack

NEED FOR SPEED™ PAYBACK

4 сезон

9 сезон

Бесстыжие 9 сезон

Все сериалы

все сериалы на PB.wtf

RePack

FAR CRY 5
  

Больная бывшая / Twisted / Psycho Ex-Girlfriend (Филипп Ганьон) [2018, Триллер, WEB-DL 720p] MVO ["Синема УС"] pb.wtf

Больная бывшая через торрент pb.wtf

Размер: 3.39 GB | Добавлен: 1 год 8 мес. назад | Торрент скачан:26 раз
Скачать  

03-12-2018 12:16 Больная бывшая Скачать торрент  

Больная бывшая / Twisted / Psycho Ex-GirlfriendГод выпуска: 2018
Страна: Канада
Жанр: Триллер
Продолжительность: 01:34:41
Перевод: Любительский (многоголосый) | "Синема УС"
Субтитры: отсутствуют

Режиссер: Филипп Ганьон

rating

В ролях:

Элизабет Арнуа, Морган Келли, Кимберли-Сью Мюррэй, Виктория Санчес, Томас Митчелл, Мишель Перрон, Мэттью Стефиук, Лайка Лалонд, Ксавьер Сотело, Марк Дэй

Описание:

Кара стала опорой для своего парня Тайлера. Она поставила его на ноги после бурного периода его жизни. Они планируют свадьбу, и у них всё замечательно. Было, пока в город не вернулась Изабель - бывшая девушка Тайлера. Она проходила реабилитацию от наркотической зависимости и теперь намерена вернуть бывшего парня. Кара сразу почувствовала от Изабель угрозу, ведь она не такая сексуальная, смелая и откровенная, как бывшая подружка жениха. К удивлению Кары, Изабель всячески начинает вторгаться в жизнь Тайлера, и девушка боится, что он снова может поддаться плохим привычкам. Мир Кары рушится на глазах, и ей кажется, что за странными событиями в ее жизни стоит Изабель. Боязнь, породившая желание удержать жениха, переросла в извращенную игру в кошки-мышки. Удастся ли Каре справиться с гневом бывшей ее жениха?

Качество: WEB-DL 720p
Формат: MKV

Видео: 4 831 kb/s, 1280x720
Аудио#1: Русский, (AC3, 2 ch, 384 Кбит/с)
скриншот  скриншот  скриншот  

Общее
Уникальный идентификатор : 202084532928943490654409854954303347638 (0x980810B93D67F7EEB47AFD6C9F675BB6)
Полное имя : D:\Psycho.Ex-Girlfriend.2018.P.WEB-DL.72Op_KOSHARA.mkv
Формат : Matroska
Версия формата : Version 2
Размер файла : 3,39 Гбайт
Продолжительность : 1 ч. 33 м.
Режим общего битрейта : Переменный
Общий поток : 5217 Кбит/сек
Дата кодирования : UTC 2018-12-03 09:04:57
Программа кодирования : mkvmerge v8.3.0 ('Over the Horizon') 64bit
Библиотека кодирования : libebml v1.3.1 + libmatroska v1.4.2

Видео
Идентификатор : 1
Формат : AVC
Формат/Информация : Advanced Video Codec
Профиль формата : High@L4.1
Параметр CABAC формата : Да
Параметр RefFrames формата : 4 кадра
Идентификатор кодека : V_MPEG4/ISO/AVC
Продолжительность : 1 ч. 33 м.
Вид битрейта : Переменный
Битрейт : 4831 Кбит/сек
Максимальный битрейт : 5500 Кбит/сек
Ширина : 1280 пикселей
Высота : 720 пикселей
Соотношение сторон : 16:9
Режим частоты кадров : Постоянный
Частота кадров : 23,976 (24000/1001) кадра/сек
Стандарт вещания : Component
Цветовое пространство : YUV
Субдискретизация насыщенности : 4:2:0
Битовая глубина : 8 бит
Тип развёртки : Прогрессивная
Бит/(Пиксели*Кадры) : 0.214
Размер потока : 3,08 Гбайт (91%)
Default : Да
Forced : Нет
Цветовой диапазон : Limited
Основные цвета : BT.709
Характеристики трансфера : BT.709
Коэффициенты матрицы : BT.709

Аудио
Идентификатор : 2
Формат : AC-3
Формат/Информация : Audio Coding 3
Расширение режима : CM (complete main)
Параметр Endianness формата : Big
Идентификатор кодека : A_AC3
Продолжительность : 1 ч. 33 м.
Вид битрейта : Постоянный
Битрейт : 384 Кбит/сек
Каналы : 2 канала
Расположение каналов : Front: L R
Частота : 48,0 КГц
Частота кадров : 31,250 кадров/сек (1536 spf)
Метод сжатия : С потерями
Размер потока : 256 Мбайт (7%)
Default : Да
Forced : Нет

pb.wtf



Скачать Больная бывшая через торрент https://d.radikal.ru/d39/1812/94/d0ab5344d2ce.jpg Скачать фильм Больная бывшая через торрент бесплантно в хорошем качестве Описание: Кара стала опорой для своего парня Тайлера. Она поставила его на ноги после бурного периода его жизни. Они планируют свадьбу, и у ... 10 10 5
Торрент: Зарегистрирован [2018-12-03 12:16] · скачан: 26 раз
Статус: T временная
Размер: 3.39 GB
Как cкачать? Как скачать Больная бывшая через торрент | qTorrent

% Раздел Тема Автор DL S | L
T Фильмы (мультфильмы) cо спонсором показа (Новинки AVI/MKV) [ 1.37 GB ] Больная бывшая / Twisted / Psycho Ex-Girlfriend [2018 WEB-DLRip] MVO ["Синема УС"] bober100 Скачать
1 | 0

28-11-2019 20:33  

Отключить всю рекламу на сайте

    Дорогой пользователь! Огромная просьба, поблагодарите релизера, оцените раздачу и оставьте свои комментарий, если Вы скачали Больная бывшая через торрент бесплатно! Внесите свою лепту в развитие PiratBit!
    Комментировать посты могут только пользователи прошедшие не сложную регистрацию
    Показать сообщения:    

    Больная бывшая через торрент
    Скачать бесплатно Больная бывшая
    Больная бывшая скачать торрент
    Больная бывшая смотреть онлайн
    Cкачать фильм Больная бывшая бесплатно
    Больная бывшая скачать торрент в хорошем качестве
    Больная бывшая смотреть онлайн бесплатно в хорошем качестве


    Вы не можете начинать темы
    Вы не можете отвечать на сообщения
    Вы не можете редактировать свои сообщения
    Вы не можете удалять свои сообщения
    Вы не можете голосовать в опросах
    Вы не можете прикреплять файлы к сообщениям
    Вы можете скачивать файлы