Ссылка на приватное зеркало всего за 1$. Внимание количество ограничено!!!

OK

1+1

iTunes

мы

OK

1

WEB-DLRip

Джокер

Пифагор

Ведьмак / The Witcher сериал

Лицензия

ПШазам

ОК

Оно 2

iTunes

30
pack

Вам бонус

ВАЖНО

!!Акция!!

Alien_RageХит недели

RePack

Resident Evil 21

ИГРА 18+

pack

RePack

jed

RePack

fifa19

RePack

Assassins Creed: Odyssey

RePack

NEED FOR SPEED™ PAYBACK

4 сезон

9 сезон

Бесстыжие 9 сезон

Все сериалы

все сериалы на PB.wtf

RePack

FAR CRY 5
  

Капитан / Der Hauptmann (Роберт Швентке) [2017, драма, военный, история, BDRip 720p] MVO ["Синема УС"] pb.wtf

Капитан через торрент pb.wtf

Размер: 5.97 GB | Добавлен: 1 год 1 мес. назад | Торрент скачан:126 раз
Скачать  

03-12-2018 13:16 Капитан Скачать торрент  

Капитан / Der HauptmannГод выпуска: 2017
Страна: Германия, Франция, Польша, Китай, Португалия
Жанр: драма, военный, история
Продолжительность: 02:00:17
Перевод: Любительский (многоголосый) | "Синема УС"
Субтитры: отсутствуют

Режиссер: Роберт Швентке

rating

В ролях:

Макс Хубахер, Милан Пешель, Фредерик Лау, Bernd Hölscher, Вальдемар Кобус, Александр Фелинг, Самуэль Финци, Вольфрам Кох, Евгения Анселен, Хендрик Арнст

Описание:

В последние дни Второй мировой войны измученный и голодный 19-летний рядовой похищает капитанский мундир. Прикидываясь офицером, он собирает группу дезертиров и собирается всеми возможными средствами пробивать себе путь сквозь опустошённую нацистскую Германию.

Качество: BDRip 720p
Формат: MKV

Видео: h.264,6 659 Кбит/с, 1280x536
Аудио#1: Русский (AC3, 2 ch, 448 Кбит/с)
скриншот  скриншот  скриншот  

Общее
Уникальный идентификатор : 250519508503373244146165885391617452531 (0xBC784D640E4FB498AF8CBC949550E9F3)
Полное имя : D:\Der.Hauptmann.2017.P.BDRip.72Op.mkv
Формат : Matroska
Версия формата : Version 2
Размер файла : 5,97 Гбайт
Продолжительность : 2 ч. 0 м.
Режим общего битрейта : Переменный
Общий поток : 7109 Кбит/сек
Дата кодирования : UTC 2018-12-03 08:01:01
Программа кодирования : mkvmerge v8.3.0 ('Over the Horizon') 64bit
Библиотека кодирования : libebml v1.3.1 + libmatroska v1.4.2

Видео
Идентификатор : 1
Формат : AVC
Формат/Информация : Advanced Video Codec
Профиль формата : High@L4.1
Параметр CABAC формата : Да
Параметр RefFrames формата : 4 кадра
Идентификатор кодека : V_MPEG4/ISO/AVC
Продолжительность : 2 ч. 0 м.
Вид битрейта : Переменный
Битрейт : 6659 Кбит/сек
Максимальный битрейт : 7500 Кбит/сек
Ширина : 1280 пикселей
Высота : 536 пикселей
Соотношение сторон : 2,40:1
Режим частоты кадров : Постоянный
Частота кадров : 23,976 (24000/1001) кадра/сек
Стандарт вещания : Component
Цветовое пространство : YUV
Субдискретизация насыщенности : 4:2:0
Битовая глубина : 8 бит
Тип развёртки : Прогрессивная
Бит/(Пиксели*Кадры) : 0.396
Размер потока : 5,48 Гбайт (92%)
Default : Да
Forced : Нет
Цветовой диапазон : Limited
Основные цвета : BT.709
Характеристики трансфера : BT.709
Коэффициенты матрицы : BT.709

Аудио
Идентификатор : 2
Формат : AC-3
Формат/Информация : Audio Coding 3
Расширение режима : CM (complete main)
Параметр Endianness формата : Big
Идентификатор кодека : A_AC3
Продолжительность : 2 ч. 0 м.
Вид битрейта : Постоянный
Битрейт : 448 Кбит/сек
Каналы : 2 канала
Расположение каналов : Front: L R
Частота : 48,0 КГц
Частота кадров : 31,250 кадров/сек (1536 spf)
Метод сжатия : С потерями
Размер потока : 385 Мбайт (6%)
Default : Да
Forced : Нет

pb.wtf



Скачать Капитан через торрент https://c.radikal.ru/c14/1812/9d/3379d1a4a84a.jpg Скачать фильм Капитан через торрент бесплантно в хорошем качестве Описание: В последние дни Второй мировой войны измученный и голодный 19-летний рядовой похищает капитанский мундир. Прикидываясь офицером, ... 8.4 10 7
Торрент: Зарегистрирован [2018-12-03 13:16] · скачан: 126 раз
Статус: # сомнительно
Размер: 5.97 GB
Как cкачать? Как скачать Капитан через торрент | qTorrent

% Раздел Тема Автор DL S | L
Фильмы [HD 720p, 1080p] (Хороший звук DUB, MVO) [ 4.27 GB ] Капитан / Der Hauptmann [2017 военный история BDRip 720p] MVO [HDRezka Studio] - ExKinoRay Enigma2010 Скачать
11 | 2
Фильмы 2017 [DVDrip, WEB-DLRip, HDrip] (DUB, MVO) [ 2.12 GB ] Капитан / Der Hauptmann / The Captain [2017 военный история BDRip] [MVO] killermax2013 Скачать
5 | 0
Фильмы с авторской озвучкой [ 4.43 GB ] Капитан / Der Hauptmann [2017 военный история BDRip 720p] AVO [Сербин] - ExKinoRay Enigma2010 Скачать
2 | 0
T Фильмы (мультфильмы) cо спонсором показа (Новинки AVI/MKV) [ 1.37 GB ] Капитан / Der Hauptmann [2017 военный история HDRip] MVO ["Синема УС"] bober100 Скачать
1 | 0
Фильмы с авторской озвучкой [ 8.52 GB ] Капитан / Der Hauptmann [2017 военный история BDRip 1080p] AVO [Сербин] - ExKinoRay Enigma2010 Скачать
1 | 0
T Фильмы (мультфильмы) cо спонсором показа (Новинки AVI/MKV) [ 2.05 GB ] Капитан / Der Hauptmann [2017 военный история HDRip] MVO ["Синема УС"] bober100 Скачать
1 | 0

28-11-2019 20:33  

Отключить всю рекламу на сайте

03-12-2018 14:50 Капитан Скачать торрент  

Типо фильма - Сила мундира?pb.wtf



05-12-2018 14:13 Капитан Скачать торрент  

Про мундир понятно,но зачем люфтваффе заниматься тылом?Бред!)))pb.wtf



    Дорогой пользователь! Огромная просьба, поблагодарите релизера, оцените раздачу и оставьте свои комментарий, если Вы скачали Капитан через торрент бесплатно! Внесите свою лепту в развитие PiratBit!
    Комментировать посты могут только пользователи прошедшие не сложную регистрацию
    Показать сообщения:    

    Капитан через торрент
    Скачать бесплатно Капитан
    Капитан скачать торрент
    Капитан смотреть онлайн
    Cкачать фильм Капитан бесплатно
    Капитан скачать торрент в хорошем качестве
    Капитан смотреть онлайн бесплатно в хорошем качестве


    Вы не можете начинать темы
    Вы не можете отвечать на сообщения
    Вы не можете редактировать свои сообщения
    Вы не можете удалять свои сообщения
    Вы не можете голосовать в опросах
    Вы не можете прикреплять файлы к сообщениям
    Вы можете скачивать файлы