Marvel's Avengers Deluxe Edition (супер цена) 159р. Внимание количество ограничено!!!

2 сезон

iTunes

iTunes

1

iTunes

iTunes

iTunes

WEBRip

iTunes

30
pack

Новость дня

ВАЖНО

!!Акция!!

Alien_RageХит недели

RePack

Horizon Zero Dawn

ИГРА 18+

pack

RePack

jed

!!Акция!!

Alien_Rage

RePack

fifa19

RePack

Assassins Creed: Odyssey

RePack

NEED FOR SPEED™ PAYBACK

4 сезон

9 сезон

Бесстыжие 9 сезон

Все сериалы

все сериалы на PB.wtf

RePack

FAR CRY 5
  

Капитан / Der Hauptmann (Роберт Швентке) [2017, драма, военный, история, BD Remux 1080p] MVO [HDRezka Studio] +AVO [Ю. Сербин] pb.wtf

Капитан через торрент pb.wtf

Размер: 30.23 GB | Добавлен: 3 мес. 22 д. назад | Торрент скачан:10 раз
Скачать  

03-12-2018 13:16 Капитан Скачать торрент  

Капитан | Der Hauptmann
Год выпуска: 2017
Страна: Германия, Франция, Польша, Китай, Португалия
Жанр: драма, военный, история
Продолжительность: 02:00:17
Перевод:
Профессиональный многоголосый | HDRezka Studio
Авторский (одноголосый, закадровый) | Ю. Сербин
Субтитры: Русские, Английские, Немецкие

Режиссер: Роберт Швентке

rating

В ролях: Макс Хубахер, Милан Пешель, Фредерик Лау, Bernd Hölscher, Вальдемар Кобус, Александр Фелинг, Самуэль Финци, Вольфрам Кох, Евгения Анселен, Хендрик Арнст

Описание: В последние дни Второй мировой войны измученный и голодный 19-летний рядовой похищает капитанский мундир. Прикидываясь офицером, он собирает группу дезертиров и собирается всеми возможными средствами пробивать себе путь сквозь опустошённую нацистскую Германию.

Качество: BD Remux 1080p
Формат: MKV

Видео: H.264 AVC, 1920x1080 (16:9), 23.976 fps, 28.0 Mb/s
Аудио 1: AC-3, 48.0 kHz, 6 ch, 640 kb/s | RUS (HDRezka Studio / Монтаж 5.1 - karasidi)
Аудио 2: DTS-HD, 48.0 kHz, 6 ch, 3 793 kb/s| RUS (Ю. Сербин)
Аудио 3: DTS-HD, 48.0 kHz, 6 ch, 3 821 kb/s| GER
скриншот  скриншот  скриншот  скриншот  скриншот  

General
Unique ID : 191846393123084519666471849644114827513 (0x905445757ABA024F93F7941CB563D8F9)
Complete name : Der.Hauptmann.2017.BDREMUX.1080p.mkv
Format : Matroska
Format version : Version 4
File size : 30.2 GiB
Duration : 1 h 59 min
Overall bit rate mode : Variable
Overall bit rate : 36.2 Mb/s
Encoded date : UTC 2019-05-07 12:43:26
Writing application : mkvmerge v8.3.0 ('Over the Horizon') 64bit
Writing library : libebml v1.3.1 + libmatroska v1.4.2

Video
ID : 1
Format : AVC
Format/Info : Advanced Video Codec
Format profile : High@L4.1
Format settings : CABAC / 3 Ref Frames
Format settings, CABAC : Yes
Format settings, ReFrames : 3 frames
Codec ID : V_MPEG4/ISO/AVC
Duration : 1 h 59 min
Bit rate mode : Variable
Bit rate : 28.0 Mb/s
Maximum bit rate : 37.0 Mb/s
Width : 1 920 pixels
Height : 1 080 pixels
Display aspect ratio : 16:9
Frame rate mode : Constant
Frame rate : 23.976 (24000/1001) FPS
Color space : YUV
Chroma subsampling : 4:2:0
Bit depth : 8 bits
Scan type : Progressive
Bits/(Pixel*Frame) : 0.563
Stream size : 23.3 GiB (77%)
Language : English
Default : Yes
Forced : No

Audio #1
ID : 2
Format : AC-3
Format/Info : Audio Coding 3
Commercial name : Dolby Digital
Codec ID : A_AC3
Duration : 1 h 59 min
Bit rate mode : Constant
Bit rate : 640 kb/s
Channel(s) : 6 channels
Channel layout : L R C LFE Ls Rs
Sampling rate : 48.0 kHz
Frame rate : 31.250 FPS (1536 SPF)
Bit depth : 16 bits
Compression mode : Lossy
Stream size : 547 MiB (2%)
Title : HDRezka
Language : Russian
Default : Yes
Forced : No

Audio #2
ID : 3
Format : DTS XLL
Format/Info : Digital Theater Systems
Commercial name : DTS-HD Master Audio
Codec ID : A_DTS
Duration : 1 h 59 min
Bit rate mode : Variable
Bit rate : 3 793 kb/s
Channel(s) : 6 channels
Channel layout : C L R Ls Rs LFE
Sampling rate : 48.0 kHz
Frame rate : 93.750 FPS (512 SPF)
Bit depth : 24 bits
Compression mode : Lossless
Stream size : 3.16 GiB (10%)
Title : Ю. Сербин
Language : Russian
Default : No
Forced : No

Audio #3
ID : 4
Format : DTS XLL
Format/Info : Digital Theater Systems
Commercial name : DTS-HD Master Audio
Codec ID : A_DTS
Duration : 1 h 59 min
Bit rate mode : Variable
Bit rate : 3 821 kb/s
Channel(s) : 6 channels
Channel layout : C L R Ls Rs LFE
Sampling rate : 48.0 kHz
Frame rate : 93.750 FPS (512 SPF)
Bit depth : 24 bits
Compression mode : Lossless
Stream size : 3.19 GiB (11%)
Language : German
Default : No
Forced : No

Text #1
ID : 5
Format : UTF-8
Codec ID : S_TEXT/UTF8
Codec ID/Info : UTF-8 Plain Text
Duration : 1 h 54 min
Bit rate : 58 b/s
Count of elements : 846
Stream size : 49.3 KiB (0%)
Language : Russian
Default : No
Forced : No

Text #2
ID : 6
Format : UTF-8
Codec ID : S_TEXT/UTF8
Codec ID/Info : UTF-8 Plain Text
Duration : 1 h 54 min
Bit rate : 33 b/s
Count of elements : 849
Stream size : 28.2 KiB (0%)
Language : English
Default : No
Forced : No

Text #3
ID : 7
Format : UTF-8
Codec ID : S_TEXT/UTF8
Codec ID/Info : UTF-8 Plain Text
Duration : 1 h 58 min
Bit rate : 41 b/s
Count of elements : 1051
Stream size : 35.6 KiB (0%)
Language : German
Default : No
Forced : No

Menu
00:00:00.000 : en:Chapter 1
00:08:22.168 : en:Chapter 2
00:16:57.516 : en:Chapter 3
00:24:09.906 : en:Chapter 4
00:36:53.710 : en:Chapter 5
00:47:40.440 : en:Chapter 6
00:58:52.820 : en:Chapter 7
01:09:22.533 : en:Chapter 8
01:20:07.010 : en:Chapter 9
01:32:54.318 : en:Chapter 10
01:44:01.026 : en:Chapter 11
01:50:09.394 : en:Chapter 12

pb.wtf



Скачать Капитан через торрент https://i4.imageban.ru/out/2019/05/07/87efbcb1da5fc9016aa6061134bc85ee.png Скачать фильм Капитан через торрент бесплантно в хорошем качестве Описание: В последние дни Второй мировой войны измученный и голодный 19-летний рядовой похищает капитанский мундир. Прикидываясь офицером, ... 8.4 10 7
Торрент: Зарегистрирован [2020-05-27 04:26] · скачан: 10 раз
Статус: √ проверено
Размер: 30.23 GB
Как cкачать? Как скачать Капитан через торрент | qTorrent

% Раздел Тема Автор DL S | L
Фильмы [HD 720p, 1080p] (Хороший звук DUB, MVO) [ 4.27 GB ] Капитан / Der Hauptmann [2017 военный история BDRip 720p] MVO [HDRezka Studio] - ExKinoRay Enigma2010 Скачать
31 | 3
Фильмы 2017 [DVDrip, WEB-DLRip, HDrip] (DUB, MVO) [ 2.12 GB ] Капитан / Der Hauptmann / The Captain [2017 военный история BDRip] [MVO] killermax2013 Скачать
3 | 0
Фильмы с авторской озвучкой [ 4.43 GB ] Капитан / Der Hauptmann [2017 военный история BDRip 720p] AVO [Сербин] - ExKinoRay Enigma2010 Скачать
1 | 0
T Фильмы (мультфильмы) cо спонсором показа (Новинки AVI/MKV) [ 1.37 GB ] Капитан / Der Hauptmann [2017 военный история HDRip] MVO ["Синема УС"] bober100 Скачать
1 | 0
Фильмы с авторской озвучкой [ 8.52 GB ] Капитан / Der Hauptmann [2017 военный история BDRip 1080p] AVO [Сербин] - ExKinoRay Enigma2010 Скачать
1 | 0
T Фильмы (мультфильмы) cо спонсором показа (Новинки AVI/MKV) [ 2.05 GB ] Капитан / Der Hauptmann [2017 военный история HDRip] MVO ["Синема УС"] bober100 Скачать
1 | 0


Последний раз редактировалось: bober100 (2020-05-27 04:26), всего редактировалось 1 раз

28-11-2019 20:33  

Отключить всю рекламу на сайте

    Дорогой пользователь! Огромная просьба, поблагодарите релизера, оцените раздачу и оставьте свои комментарий, если Вы скачали Капитан через торрент бесплатно! Внесите свою лепту в развитие PiratBit!
    Комментировать посты могут только пользователи прошедшие не сложную регистрацию
    Показать сообщения:    

    Капитан через торрент
    Скачать бесплатно Капитан
    Капитан скачать торрент
    Капитан смотреть онлайн
    Cкачать фильм Капитан бесплатно
    Капитан скачать торрент в хорошем качестве
    Капитан смотреть онлайн бесплатно в хорошем качестве


    Вы не можете начинать темы
    Вы не можете отвечать на сообщения
    Вы не можете редактировать свои сообщения
    Вы не можете удалять свои сообщения
    Вы не можете голосовать в опросах
    Вы не можете прикреплять файлы к сообщениям
    Вы можете скачивать файлы