Ссылка на приватное зеркало всего за 1$. Внимание количество ограничено!!!

OK

1+1

iTunes

мы

OK

1

WEB-DLRip

Джокер

Пифагор

Ведьмак / The Witcher сериал

iTunes

ПШазам

ОК

Оно 2

iTunes

30
pack

Вам бонус

ВАЖНО

!!Акция!!

Alien_RageХит недели

RePack

Resident Evil 21

ИГРА 18+

pack

RePack

jed

RePack

fifa19

RePack

Assassins Creed: Odyssey

RePack

NEED FOR SPEED™ PAYBACK

4 сезон

9 сезон

Бесстыжие 9 сезон

Все сериалы

все сериалы на PB.wtf

RePack

FAR CRY 5
  

Проклятие против Заклятия / Bi xian VS jia yezi (Линь Жигуо) [2017, ужасы, WEB-DL 720p] MVO [КОЛОБОК] pb.wtf

Проклятие против Заклятия через торрент pb.wtf

Размер: 3.2 GB | Добавлен: 1 год 1 мес. назад | Торрент скачан:37 раз
Скачать  

03-12-2018 14:15 Проклятие против Заклятия Скачать торрент  

Проклятие против Заклятия / Bi xian VS jia yeziГод выпуска: 2017
Страна: Китай
Жанр: ужасы
Продолжительность: 01:26:14
Перевод: Любительский (многоголосый) | КОЛОБОК
Субтитры: отсутствуют

Режиссер: Линь Жигуо



В ролях:

Ло Сян, Ли Цзяйинг, Цзян Ланью, Ю Сяоюй, Ма Хуэй

Описание:

Когда застройщик решает провести реновацию и снести дом бабушки главной герини, она собирает подруг и друзей, чтобы вызывать призрака, который должен отпугнуть бессердечного коммерсанта. Но с потусторонними силами лучше не шутить...

Качество: WEB-DL 720p
Формат: AVI

Видео: h.264, 4 923 Кбит/с, 1280x538
Аудио#1: Русский, (AC3, 2 ch, 384 Кбит/с)
скриншот  скриншот  скриншот  

Общее
Уникальный идентификатор : 220683094338891425592958555769416135868 (0xA6060499130DCDA99A9BF7419F5334BC)
Полное имя : D:\2018.conjurning.vs.grudge.2O18.Pk.WEB-DL.72Op.mkv
Формат : Matroska
Версия формата : Version 2
Размер файла : 3,20 Гбайт
Продолжительность : 1 ч. 26 м.
Режим общего битрейта : Переменный
Общий поток : 5309 Кбит/сек
Дата кодирования : UTC 2018-12-03 07:47:51
Программа кодирования : mkvmerge v8.3.0 ('Over the Horizon') 64bit
Библиотека кодирования : libebml v1.3.1 + libmatroska v1.4.2

Видео
Идентификатор : 1
Формат : AVC
Формат/Информация : Advanced Video Codec
Профиль формата : High@L4.1
Параметр CABAC формата : Да
Параметр RefFrames формата : 4 кадра
Идентификатор кодека : V_MPEG4/ISO/AVC
Продолжительность : 1 ч. 26 м.
Вид битрейта : Переменный
Битрейт : 4923 Кбит/сек
Максимальный битрейт : 5500 Кбит/сек
Ширина : 1280 пикселей
Высота : 538 пикселей
Соотношение сторон : 2,40:1
Режим частоты кадров : Постоянный
Частота кадров : 23,976 (24000/1001) кадра/сек
Стандарт вещания : Component
Цветовое пространство : YUV
Субдискретизация насыщенности : 4:2:0
Битовая глубина : 8 бит
Тип развёртки : Прогрессивная
Бит/(Пиксели*Кадры) : 0.292
Размер потока : 2,90 Гбайт (91%)
Default : Да
Forced : Нет
Цветовой диапазон : Limited
Основные цвета : BT.709
Характеристики трансфера : BT.709
Коэффициенты матрицы : BT.709

Аудио
Идентификатор : 2
Формат : AC-3
Формат/Информация : Audio Coding 3
Расширение режима : CM (complete main)
Параметр Endianness формата : Big
Идентификатор кодека : A_AC3
Продолжительность : 1 ч. 26 м.
Вид битрейта : Постоянный
Битрейт : 384 Кбит/сек
Каналы : 2 канала
Расположение каналов : Front: L R
Частота : 48,0 КГц
Частота кадров : 31,250 кадров/сек (1536 spf)
Метод сжатия : С потерями
Размер потока : 237 Мбайт (7%)
Default : Да
Forced : Нет

pb.wtf



Скачать Проклятие против Заклятия через торрент https://b.radikal.ru/b05/1812/c5/7f1906351cdc.jpg Скачать фильм Проклятие против Заклятия через торрент бесплантно в хорошем качестве Описание: Когда застройщик решает провести реновацию и снести дом бабушки главной герини, она собирает подруг и друзей, чтобы вызывать ... 10 10 2
Торрент: Зарегистрирован [2018-12-03 14:15] · скачан: 37 раз
Статус: T временная
Размер: 3.2 GB
Как cкачать? Как скачать Проклятие против Заклятия через торрент | qTorrent

% Раздел Тема Автор DL S | L
T Фильмы (мультфильмы) cо спонсором показа (Новинки AVI/MKV) [ 1.36 GB ] Проклятие против Заклятия / Bi xian VS jia yezi [2017 WEB-DLRip] MVO [КОЛОБОК] bober100 Скачать
1 | 0

28-11-2019 20:33  

Отключить всю рекламу на сайте

03-12-2018 14:28 Проклятие против Заклятия Скачать торрент  

Название огонь! pb.wtf



    Дорогой пользователь! Огромная просьба, поблагодарите релизера, оцените раздачу и оставьте свои комментарий, если Вы скачали Проклятие против Заклятия через торрент бесплатно! Внесите свою лепту в развитие PiratBit!
    Комментировать посты могут только пользователи прошедшие не сложную регистрацию
    Показать сообщения:    

    Проклятие против Заклятия через торрент
    Скачать бесплатно Проклятие против Заклятия
    Проклятие против Заклятия скачать торрент
    Проклятие против Заклятия смотреть онлайн
    Cкачать фильм Проклятие против Заклятия бесплатно
    Проклятие против Заклятия скачать торрент в хорошем качестве
    Проклятие против Заклятия смотреть онлайн бесплатно в хорошем качестве


    Вы не можете начинать темы
    Вы не можете отвечать на сообщения
    Вы не можете редактировать свои сообщения
    Вы не можете удалять свои сообщения
    Вы не можете голосовать в опросах
    Вы не можете прикреплять файлы к сообщениям
    Вы можете скачивать файлы