Всегда рабочее зеркало просто перед .vidak.icu напиши любое слово или цифру, Пример http://pu7.vidak.icu

>

7.4

iTunes

7.4

2 сезон

9.4

1 сезон

1

7.4

2 сезон

7.2

iTunes

6.0

MVO

13

6.1

iTunes

8.3

Пиратка

30

ULTIMATE

pack

9.9

Лицензия

ВАЖНО

ИГРА 18+

pack

7.3

RePack

MK11

7.7

RePack

jed

7.8

RePack

fifa19

8.5

RePack

RDR2

RePack

NEED FOR SPEED™ PAYBACK

1 сезон

9 сезон

Бесстыжие 9 сезон

Все сериалы

все сериалы на PB.wtf

RePack

FAR CRY 5

Anonymous, доброй ночи, мы катастрофически не успеваем собрать деньги на оплату серверов, помогите нам пожалуйста 5,10,15р., для нас важна любая помощь . В качестве благодарности мы отключим Вам всю рекламу на сайте (укажите свой ник в строку Ваше имя)!

×
  
Magnet ссылка

Схватка / Heat [4K Remastered] (Майкл Манн) [1995, триллер, драма, криминал, BDRip 1080p-HEVC 10bit, AVO (Гоблин)] pb.wtf

Смотреть онлайн Схватка | Скачать    Ребята, помогите собрать деньги на оплату серверов!!!

03-12-2018 20:11 Схватка Скачать торрент  

Схватка / Heat [4K Remastered]
Год выпуска: 1995
Страна: США
Жанр: триллер, драма, криминал
Продолжительность: 02:50:18
Перевод: Авторский (одноголосый) (Гоблин)
Субтитры: Нет

Режиссер: Майкл Манн



В ролях: Аль Пачино, Роберт Де Ниро, Вэл Килмер, Том Сайзмор, Эми Бреннеман, Джон Войт, Дайан Венора, Эшли Джадд, Майкелти Уильямсон, Уэс Стьюди

Описание: Ник МакКоли — один из лучших преступников Лос-Анджелеса. Ему противостоит лучший детектив Винсент Ханна. Две сильнейшие команды сходятся друг против друга в смертельной схватке.

Качество: BDRip 1080p
Формат: MKV
Видео кодек: H.265
Аудио кодек: AC3
Видео: HEVC/H.265, 1920x800, ~2473 Kbps
Аудио#1: AC3, 6 ch, 640 Kbps - AVO, (Гоблин)
Релиз от: ADVOKAT69
скриншот  ,скриншот  ,скриншот  ,скриншот  ,

Общее
Уникальный идентификатор : 195151138070336487407566576169771549649 (0x92D0BDF6EDE16A32A4E811F72BCB43D1)
Полное имя : E:\Новая папка (2)\Схватка 1995 4K Remastered (1080p x265 10bit).mkv
Формат : Matroska
Версия формата : Version 4 / Version 2
Размер файла : 3,71 Гбайт
Продолжительность : 2 ч. 50 м.
Общий поток : 3115 Кбит/сек
Название фильма : Heat
Дата кодирования : UTC 2018-11-23 20:44:28
Программа кодирования : mkvmerge v9.2.0 ('Photograph') 64bit
Библиотека кодирования : libebml v1.3.3 + libmatroska v1.4.4

Видео
Идентификатор : 1
Формат : HEVC
Формат/Информация : High Efficiency Video Coding
Профиль формата : Main 10@L4@Main
Идентификатор кодека : V_MPEGH/ISO/HEVC
Продолжительность : 2 ч. 50 м.
Битрейт : 2473 Кбит/сек
Ширина : 1920 пикселей
Высота : 800 пикселей
Соотношение сторон : 2,40:1
Режим частоты кадров : Постоянный
Частота кадров : 23,976 (24000/1001) кадра/сек
Цветовое пространство : YUV
Субдискретизация насыщенности : 4:2:0
Битовая глубина : 10 бит
Бит/(Пиксели*Кадры) : 0.067
Размер потока : 2,94 Гбайт (79%)
Библиотека кодирования : x265 2.2+30-fa52b516f5ff:[Windows][GCC 6.2.0][64 bit] 10bit
Настройки программы : cpuid=1173503 / frame-threads=3 / numa-pools=8 / wpp / no-pmode / no-pme / no-psnr / no-ssim / log-level=2 / input-csp=1 / input-res=1920x800 / interlace=0 / total-frames=244993 / level-idc=0 / high-tier=1 / uhd-bd=0 / ref=4 / no-allow-non-conformance / no-repeat-headers / annexb / no-aud / no-hrd / info / hash=0 / no-temporal-layers / open-gop / min-keyint=23 / keyint=250 / bframes=4 / b-adapt=2 / b-pyramid / bframe-bias=0 / rc-lookahead=25 / lookahead-slices=4 / scenecut=40 / no-intra-refresh / ctu=64 / min-cu-size=8 / rect / no-amp / max-tu-size=32 / tu-inter-depth=1 / tu-intra-depth=1 / limit-tu=0 / rdoq-level=2 / complex-analysis=0.00 / signhide / no-tskip / nr-intra=0 / nr-inter=0 / no-constrained-intra / strong-intra-smoothing / max-merge=3 / limit-refs=3 / limit-modes / me=3 / subme=3 / merange=57 / temporal-mvp / weightp / no-weightb / no-analyze-src-pics / deblock=0:0 / sao / no-sao-non-deblock / rd=4 / no-early-skip / rskip / no-fast-intra / no-tskip-fast / no-cu-lossless / no-b-intra / rdpenalty=0 / psy-rd=2.00 / psy-rdoq=1.00 / no-rd-refine / analysis-mode=0 / no-lossless / cbqpoffs=0 / crqpoffs=0 / rc=abr / bitrate=2473 / qcomp=0.60 / qpstep=4 / stats-write=0 / stats-read=2 / cplxblur=20.0 / qblur=0.5 / ipratio=1.40 / pbratio=1.30 / aq-mode=2 / aq-strength=1.00 / cutree / zone-count=0 / no-strict-cbr / qg-size=32 / no-rc-grain / qpmax=69 / qpmin=0 / sar=0 / overscan=0 / videoformat=5 / range=0 / colorprim=2 / transfer=2 / colormatrix=2 / chromaloc=0 / display-window=0 / max-cll=0,0 / min-luma=0 / max-luma=1023 / log2-max-poc-lsb=8 / vui-timing-info / vui-hrd-info / slices=1 / opt-qp-pps / opt-ref-list-length-pps / no-multi-pass-opt-rps / scenecut-bias=0.05 / no-opt-cu-delta-qp / no-aq-motion
Default : Да
Forced : Нет

Аудио
Идентификатор : 2
Формат : AC-3
Формат/Информация : Audio Coding 3
Идентификатор кодека : A_AC3
Продолжительность : 2 ч. 50 м.
Вид битрейта : Постоянный
Битрейт : 640 Кбит/сек
Каналы : 6 каналов
Расположение каналов : Front: L C R, Side: L R, LFE
Частота : 48,0 КГц
Частота кадров : 31,250 кадров/сек (1536 SPF)
Битовая глубина : 16 бит
Метод сжатия : С потерями
Размер потока : 780 Мбайт (21%)
ServiceKind/String : Complete Main
Default : Да
Forced : Нет

Меню
00:00:00.000 : en:Chapter 01
00:04:13.294 : en:Chapter 02
00:06:54.789 : en:Chapter 03
00:09:58.389 : en:Chapter 04
00:13:26.013 : en:Chapter 05
00:14:43.007 : en:Chapter 06
00:18:11.840 : en:Chapter 07
00:20:54.294 : en:Chapter 08
00:25:14.721 : en:Chapter 09
00:31:50.283 : en:Chapter 10
00:34:47.085 : en:Chapter 11
00:37:46.055 : en:Chapter 12
00:40:38.811 : en:Chapter 13
00:44:24.870 : en:Chapter 14
00:49:12.699 : en:Chapter 15
00:51:52.901 : en:Chapter 16
00:52:47.706 : en:Chapter 17
00:55:54.309 : en:Chapter 18
00:58:01.102 : en:Chapter 19
01:01:32.480 : en:Chapter 20
01:04:20.481 : en:Chapter 21
01:08:17.968 : en:Chapter 22
01:14:40.642 : en:Chapter 23
01:17:06.163 : en:Chapter 24
01:21:48.361 : en:Chapter 25
01:25:13.108 : en:Chapter 26
01:28:41.357 : en:Chapter 27
01:34:59.318 : en:Chapter 28
01:36:50.054 : en:Chapter 29
01:41:10.064 : en:Chapter 30
01:44:56.164 : en:Chapter 31
01:46:29.800 : en:Chapter 32
01:52:25.864 : en:Chapter 33
01:53:46.861 : en:Chapter 34
01:56:40.034 : en:Chapter 35
01:59:09.725 : en:Chapter 36
02:02:41.771 : en:Chapter 37
02:07:15.002 : en:Chapter 38
02:09:56.371 : en:Chapter 39
02:11:59.411 : en:Chapter 40
02:14:36.443 : en:Chapter 41
02:19:17.098 : en:Chapter 42
02:21:35.028 : en:Chapter 43
02:25:24.090 : en:Chapter 44
02:27:52.780 : en:Chapter 45
02:30:36.193 : en:Chapter 46
02:32:54.415 : en:Chapter 47
02:34:56.578 : en:Chapter 48
02:38:11.231 : en:Chapter 49
02:40:16.440 : en:Chapter 50
02:43:42.103 : en:Chapter 51
02:45:38.887 : en:Chapter 52

pb.wtf



28-11-2019 20:33  

Отключить всю рекламу на сайте

    Дорогой пользователь! Огромная просьба, поблагодарите релизера, оцените раздачу и оставьте свои комментарий, если Вы скачали Схватка через торрент бесплатно!
    Комментировать посты могут только пользователи прошедшие не сложную регистрацию
    Показать сообщения:    

    Схватка через торрент
    Скачать бесплатно Схватка
    Схватка скачать торрент
    Схватка смотреть онлайн
    Cкачать фильм Схватка бесплатно
    Схватка скачать торрент в хорошем качестве
    Схватка смотреть онлайн бесплатно в хорошем качестве


    Вы не можете начинать темы
    Вы не можете отвечать на сообщения
    Вы не можете редактировать свои сообщения
    Вы не можете удалять свои сообщения
    Вы не можете голосовать в опросах
    Вы не можете прикреплять файлы к сообщениям
    Вы можете скачивать файлы