Ссылка на приватное зеркало нашего сайта всего за 1$. Внимание количество ограничено!!!

2 сезон

iTunes

1 сезон

1

iTunes

iTunes

iTunes

1 сезон

RePack

30

ИГРА 18+

pack

ВАЖНО

!!Акция!!

Alien_RageХит недели

RePack

MK11
pack

Забери бонус

RePack

jed

!!Акция!!

Alien_Rage

RePack

fifa19

RePack

Assassins Creed: Odyssey

RePack

NEED FOR SPEED™ PAYBACK

4 сезон

9 сезон

Бесстыжие 9 сезон

Все сериалы

все сериалы на PB.wtf

RePack

FAR CRY 5
  

Ангелина / Серии: 1 - 16 из 16 (Роман Барабаш) [2018 г., Драма, WEBRip] pb.wtf

Ангелина через торрент pb.wtf

Размер: 9.38 GB | Добавлен: 1 год 10 мес. назад | Торрент скачан:80 раз
Скачать  

04-12-2018 05:21 Ангелина Скачать торрент  

Ангелина /Серии:1 - 16 из 16
Год выпуска: 2018
Страна: Россия, Украина
Жанр: Драма
Продолжительность: 16 х 00:50:00
Субтитры: Отсутствуют

Режиссер: Роман Барабаш

В ролях: Мария Куликова, Виталий Кудрявцев, Татьяна Колганова, Александр Арсентьев, Александр Яцко, Леонид Громов, Анна Сагайдачная, Сергей Козлов (VI), Виктория Левченко (III), Олег Загородний, Мария Трепикова, Анастасия Цымбалару, Владислав Писаренко, Олег Щербина (II), Дарья Легейда, Полина Василина, Юлия Шугар, Влад Никитюк, Юрий Фелипенко, Анна Кузина, Галина Корнеева, Елена Бондарева-Репина, Оксана Архангельская, Татьяна Ружавская, Владислав Мамчур, Борислав Борисенко, Елена Колесниченко, Игорь Рубашкин, Наталия Бабенко

Описание: Юная Ангелина унаследовала от бабки-травницы секреты народной медицины и ее обширную клиентуру. Ангелине по душе семейное занятие, которому она посвящает все свое время, несмотря на то, что жених Павел Коростылев уговаривает девушку бросить знахарство ради их общего будущего. Упрямство Ангелины и интриги ее соперницы Инги Думановой, влюбленной в Павла, делают свое дело. Ангелина и Павел расстаются – и каждый из них в этом разрыве винит противоположную сторону. Зато на улице Инги наступает праздник – свадьба с Павлом не за горами. А вскоре у молодой пары рождаются мальчики-близнецы...

Качество: WEBRip
Формат: AVI
Видео кодек: XviD
Аудио кодек: AC3
Видео: XviD, ~ 1636 Кбит/с, 720x400
Аудио#1: AC3, 2 ch, 192 Кбит/с
скриншот   скриншот   скриншот   скриншот  

General
Complete name : H:\релизы.торрентфайл\Ангелина.(2018).WEBRip.by.Nicodem.Files-x\01.Ангелина.(2018).WEBRip.by.Nicodem.Files-x.avi
Format : AVI
Format/Info : Audio Video Interleave
File size : 600 MiB
Duration : 45mn 38s
Overall bit rate : 1 838 Kbps
Writing application : VirtualDubMod 1.5.10.3 | www.virtualdub-fr.org || (build 2550/release)
Writing library : VirtualDubMod build 2550/release

Video
ID : 0
Format : MPEG-4 Visual
Format profile : Advanced Simple@L5
Format settings, BVOP : 1
Format settings, QPel : No
Format settings, GMC : No warppoints
Format settings, Matrix : Custom
Codec ID : XVID
Codec ID/Hint : XviD
Duration : 45mn 38s
Bit rate : 1 636 Kbps
Width : 720 pixels
Height : 400 pixels
Display aspect ratio : 16:9
Frame rate : 25.000 fps
Color space : YUV
Chroma subsampling : 4:2:0
Bit depth : 8 bits
Scan type : Progressive
Compression mode : Lossy
Bits/(Pixel*Frame) : 0.227
Stream size : 534 MiB (89%)
Writing library : XviD 73

Audio
ID : 1
Format : AC-3
Format/Info : Audio Coding 3
Mode extension : CM (complete main)
Format settings, Endianness : Big
Codec ID : 2000
Duration : 45mn 38s
Bit rate mode : Constant
Bit rate : 192 Kbps
Channel(s) : 2 channels
Channel positions : Front: L R
Sampling rate : 48.0 KHz
Bit depth : 16 bits
Compression mode : Lossy
Stream size : 62.7 MiB (10%)
Alignment : Split accross interleaves
Interleave, duration : 40 ms (1.00 video frame)
Interleave, preload duration : 500 ms

Внимание! Раздача ведётся путём добавления новых серий; при каждом добавлении создётся новый торрент. Чтобы начать докачку новой серии, пользователям необходимо сделать следующее:
  • Остановить скачивание,
  • Удалить старый торрент у себя из клиента (старые серии удалять не надо),
  • Скачать новый торрент и запустить его у себя в клиенте вместо старого, при этом указать клиенту путь в старую папку куда и должно происходить скачивание новых серий.
Ваш клиент при этом должен произвести хеширование (проверку) старой папки (если не производит сам - помогите ему сделать это), и будет докачивать только те серии которых у вас ещё нет. Старые серии при этом не удаляются, а продолжают раздаваться!

Eсли вы уже удалили старые серии, то предотвратить повторную закачку старых серий можно, отжав галочку в соответсвующих местах при запуске нового торрента. По возможности, желательно не удалять старые серии как можно дольше чтобы релизёр не столько продолжал раздавать старые серии, а смог сконцентрироваться на новых.
pb.wtf



Скачать Ангелина через торрент http://pic1.kartinco.top/images/11/es3kk.jpg Скачать фильм Ангелина через торрент бесплантно в хорошем качестве Описание: Юная Ангелина унаследовала от бабки-травницы секреты народной медицины и ее обширную клиентуру. Ангелине по душе семейное ... 10 10 3
Торрент: Зарегистрирован [2018-12-14 04:02] · скачан: 80 раз
Статус: √ проверено
Размер: 9.38 GB
Как cкачать? Как скачать Ангелина через торрент | qTorrent

% Раздел Тема Автор DL S | L
Наши сериалы [ 10.18 GB ] Чужие и близкие / Серии: 1-4 из 4 [2016 Мело HDTV 1080i] bober100 Скачать
1 | 0
Наши сериалы [ 41.31 GB ] Бумеранг / Сезон: 1 / Серии 1-16 из 16 [2017 Мело HDTV 1080p] [Русский] .R.G.Generalfilm White Smoke Скачать
1 | 0
Наши сериалы [ 10.15 GB ] Бумеранг / Сезон 1 / Серии 1-16 из 16 [2017 HDTVRip] bober100 Скачать
1 | 0
Наши сериалы [ 1.93 GB ] Больше чем врач / Серии: 1-4 из 4 [2016 SATRip-AVC] aleksan55 Скачать
1 | 0
Наши сериалы [ 2.03 GB ] Чужие и близкие / Серии: 1-4 из 4 [2016 SATRip-AVC] aleksan55 Скачать
1 | 0


Последний раз редактировалось: oleg8 (2018-12-05 03:45), всего редактировалось 5 раз(а)

28-11-2019 20:33  

Отключить всю рекламу на сайте

    Дорогой пользователь! Огромная просьба, поблагодарите релизера, оцените раздачу и оставьте свои комментарий, если Вы скачали Ангелина через торрент бесплатно! Внесите свою лепту в развитие PiratBit!
    Комментировать посты могут только пользователи прошедшие не сложную регистрацию
    Показать сообщения:    

    Ангелина через торрент
    Скачать бесплатно Ангелина
    Ангелина скачать торрент
    Ангелина смотреть онлайн
    Cкачать фильм Ангелина бесплатно
    Ангелина скачать торрент в хорошем качестве
    Ангелина смотреть онлайн бесплатно в хорошем качестве


    Вы не можете начинать темы
    Вы не можете отвечать на сообщения
    Вы не можете редактировать свои сообщения
    Вы не можете удалять свои сообщения
    Вы не можете голосовать в опросах
    Вы не можете прикреплять файлы к сообщениям
    Вы можете скачивать файлы