Marvel's Avengers Deluxe Edition (супер цена) 159р. Внимание количество ограничено!!!

2 сезон

iTunes

iTunes

1

iTunes

iTunes

iTunes

WEBRip

iTunes

30
pack

Новость дня

ВАЖНО

!!Акция!!

Alien_RageХит недели

RePack

Horizon Zero Dawn

ИГРА 18+

pack

RePack

jed

!!Акция!!

Alien_Rage

RePack

fifa19

RePack

Assassins Creed: Odyssey

RePack

NEED FOR SPEED™ PAYBACK

4 сезон

9 сезон

Бесстыжие 9 сезон

Все сериалы

все сериалы на PB.wtf

RePack

FAR CRY 5
  

Грудь-убийца / Killer Rack (Грег Ламберсон) [2015, мюзикл, ужасы, комедия, WEB-DL 720p] MVO [КОЛОБОК] pb.wtf

Грудь-убийца через торрент pb.wtf

Размер: 3.3 GB | Добавлен: 1 год 9 мес. назад | Торрент скачан:51 раз
Скачать  

04-12-2018 06:24 Грудь-убийца Скачать торрент  

Грудь-убийца / Killer RackГод выпуска: 2015
Страна: США
Жанр: мюзикл, ужасы, комедия
Продолжительность: 01:37:09
Перевод: Любительский (многоголосый) | КОЛОБОК
Субтитры: отсутствуют

Режиссер: Грег Ламберсон

rating

В ролях:

Джессика Зволак, Дэбби Рошон, Пол МакГиннис, Майкл Турбер, Ллойд Кауфман, Брук Льюис, Сэм Куалиана, Роберт Бозек, Бриттани Харе, Майкл О'Хир

Описание:

Бетти сделала себе пластическую операцию на груди и вскоре поняла, что её импланты на самом деле - пожирающие людей лавкрафтовские монстры.

Качество: WEB-DL 720p
Формат: MKV

Видео: h.264, 4 477 Кбит/с, 1280x720
Аудио#1: Русский, (AC3, 2 ch, 384 Кбит/с)
скриншот  скриншот  скриншот  

Общее
Уникальный идентификатор : 250270394806560104470303187762373144594 (0xBC485323276A769EBB44B626BF173012)
Полное имя : D:\Killer Rack.2015.Pk.WEB-DL.72Op.mkv
Формат : Matroska
Версия формата : Version 2
Размер файла : 3,30 Гбайт
Продолжительность : 1 ч. 37 м.
Режим общего битрейта : Переменный
Общий поток : 4863 Кбит/сек
Дата кодирования : UTC 2018-12-03 20:10:09
Программа кодирования : mkvmerge v8.3.0 ('Over the Horizon') 64bit
Библиотека кодирования : libebml v1.3.1 + libmatroska v1.4.2

Видео
Идентификатор : 1
Формат : AVC
Формат/Информация : Advanced Video Codec
Профиль формата : High@L4.1
Параметр CABAC формата : Да
Параметр RefFrames формата : 4 кадра
Идентификатор кодека : V_MPEG4/ISO/AVC
Продолжительность : 1 ч. 37 м.
Вид битрейта : Переменный
Битрейт : 4477 Кбит/сек
Максимальный битрейт : 5000 Кбит/сек
Ширина : 1280 пикселей
Высота : 720 пикселей
Соотношение сторон : 16:9
Режим частоты кадров : Постоянный
Частота кадров : 23,976 (24000/1001) кадра/сек
Стандарт вещания : Component
Цветовое пространство : YUV
Субдискретизация насыщенности : 4:2:0
Битовая глубина : 8 бит
Тип развёртки : Прогрессивная
Бит/(Пиксели*Кадры) : 0.198
Размер потока : 2,97 Гбайт (90%)
Default : Да
Forced : Нет
Цветовой диапазон : Limited
Основные цвета : BT.709
Характеристики трансфера : BT.709
Коэффициенты матрицы : BT.709

Аудио
Идентификатор : 2
Формат : AC-3
Формат/Информация : Audio Coding 3
Расширение режима : CM (complete main)
Параметр Endianness формата : Big
Идентификатор кодека : A_AC3
Продолжительность : 1 ч. 37 м.
Вид битрейта : Постоянный
Битрейт : 384 Кбит/сек
Каналы : 2 канала
Расположение каналов : Front: L R
Частота : 48,0 КГц
Частота кадров : 31,250 кадров/сек (1536 spf)
Метод сжатия : С потерями
Размер потока : 267 Мбайт (8%)
Default : Да
Forced : Нет

pb.wtf



Скачать Грудь-убийца через торрент https://a.radikal.ru/a38/1812/5c/49eabf621cc4.jpg Скачать фильм Грудь-убийца через торрент бесплантно в хорошем качестве Описание: Бетти сделала себе пластическую операцию на груди и вскоре поняла, что её импланты на самом деле - пожирающие людей ... 7.8 10 4
Торрент: Зарегистрирован [2018-12-04 06:24] · скачан: 51 раз
Статус: T временная
Размер: 3.3 GB
Как cкачать? Как скачать Грудь-убийца через торрент | qTorrent

% Раздел Тема Автор DL S | L
T Фильмы (мультфильмы) cо спонсором показа (Новинки AVI/MKV) [ 1.37 GB ] Грудь-убийца / Killer Rack [2015 мюзикл WEB-DLRip] MVO [КОЛОБОК] bober100 Скачать
1 | 0

28-11-2019 20:33  

Отключить всю рекламу на сайте

04-12-2018 07:02 Грудь-убийца Скачать торрент  

Хосподи, что за дичь )) кто смотрел, отпишитесь )pb.wtf



04-12-2018 08:18 Грудь-убийца Скачать торрент  

Трейлер есть?pb.wtf



04-12-2018 08:45 Грудь-убийца Скачать торрент  

PIXELINTERLAN писал(а):

Трейлер есть?

Вот трейлер, но слабонервным лучше не смотреть

pb.wtf



04-12-2018 08:57 Грудь-убийца Скачать торрент  

К коллекции есть еще фильм Вагина-убийца ))pb.wtf



04-12-2018 09:55 Грудь-убийца Скачать торрент  

ну и трэшpb.wtf



04-12-2018 10:12 Грудь-убийца Скачать торрент  

фацкен-фак... Ну какого черта подобное снимать?! Это реально только после жесткого обдалба такое может прийти в голову.pb.wtf



04-12-2018 10:35 Грудь-убийца Скачать торрент  

МЮЗИКЛ!11pb.wtf



04-12-2018 10:48 Грудь-убийца Скачать торрент  

Всегда знал что там у них что то не такpb.wtf



04-12-2018 11:02 Грудь-убийца Скачать торрент  

burkas писал(а):

Всегда знал что там у них что то не так

Ты про Сиськи? Вообще то они мягкие, приятные и обычно не кусаются... pb.wtf



04-12-2018 11:40 Грудь-убийца Скачать торрент  

трешшшшшш pb.wtf



    Дорогой пользователь! Огромная просьба, поблагодарите релизера, оцените раздачу и оставьте свои комментарий, если Вы скачали Грудь-убийца через торрент бесплатно! Внесите свою лепту в развитие PiratBit!
    Комментировать посты могут только пользователи прошедшие не сложную регистрацию
    Показать сообщения:    

    Грудь-убийца через торрент
    Скачать бесплатно Грудь-убийца
    Грудь-убийца скачать торрент
    Грудь-убийца смотреть онлайн
    Cкачать фильм Грудь-убийца бесплатно
    Грудь-убийца скачать торрент в хорошем качестве
    Грудь-убийца смотреть онлайн бесплатно в хорошем качестве


    Вы не можете начинать темы
    Вы не можете отвечать на сообщения
    Вы не можете редактировать свои сообщения
    Вы не можете удалять свои сообщения
    Вы не можете голосовать в опросах
    Вы не можете прикреплять файлы к сообщениям
    Вы можете скачивать файлы