1 сезон

1 сезон

iTunes

1

КиноПоиск HD

Кинопоиск HD

iTunes

13

1 сезон

RePack

30

Новинка

ВАЖНО

ИГРА 18+

pack

RePack

MK11
pack

Легкие деньги

RePack

jed

RePack

fifa19

RePack

RDR2

RePack

NEED FOR SPEED™ PAYBACK

4 сезон

9 сезон

Бесстыжие 9 сезон

Все сериалы

все сериалы на PB.wtf

RePack

FAR CRY 5
  
Magnet ссылка

Пианист / The Pianist (Роман Полански) [2002, драма, военный, музыка, биография, BDRip-AVC] DUB, AVO [Яроцкий] - ExKinoRay pb.wtf

Пианист через торрент pb.wtf

Раздают: 1 [ 0 KB/s ]
Размер: 4.5 GB | Добавлен: 2 года 4 мес. назад | Торрент скачан:62 раза
Скачать  

04-12-2018 14:05 Пианист Скачать торрент  

Информация о фильме
Название: Пианист
Оригинальное название: The Pianist
Год выхода: 2002
Жанр: Драма, военный
Режиссер: Роман Полански
В ролях: Эдриан Броуди, Эмилия Фокс, Томас Кречманн, Михал Жебровский, Эд Стоппард, Морин Липмен, Фрэнк Финлей, Джессика Кейт Майер, Джулия Рейнер, Ричард Райдингс, Рой Смайлс, Пол Брэдли, Даниэль Кальтаджироне, Анджей Блюменфельд, Джон Беннет, Сирил Шэпс, Рут Плэтт, Ронан Вайберт, Кжиштоф Печиньски, Катажина Фигура, Збигнев Замаховский, Удо Крошвальд, Иоанна Бродзик

Описание: Фильм повествует о жизни Варшавского гетто во время второй мировой войны. В основу положена реальная история польского музыканта Владислава Шпильмана, еврея по национальности. Все начинается в 1939 году со взятия Варшавы немецкими войсками. Всем евреям приказано носить на руках белые повязки с изображением звезды Давида. После массовых расстрелов в городе строится стена, за которую выселяют еврейское население. За стеной оказывается и Шпильман со своей семьей. Вынужденный жить в Варшавском гетто, он сполна познает вкус унижений, страдания и борьбы. Один из офицеров отступающей немецкой армии обнаруживает его среди руин разрушенного города и помогает ему выжить.

rating

Страна: Германия, Франция, Великобритания, Польша
Студия: Agencja Produkcji Filmowej, Beverly Detroit, Canal+ Polska, Canal+ [fr]
Продолжительность: 02:28:53

Кодек: x264
Качество: BDRip-AVC
Видео: MPEG-4 AVC, 2790 Кбит/с, 1024x552, 23.976 fps, 0.206 bit/pixel
Аудио #1: Русский (AC3, 2 ch, 192 Кбит/с) / Дублированный (SDI Media)(полный перевод)
Аудио #2: Русский (AC3, 6 ch, 448 Кбит/с) / Авторский одноголосый (М.Яроцкий)(спасибо MZMA за дорожку)
Аудио #3: Украинский (AC3, 6 ch, 448 Кбит/с)
Аудио #4: Английский (AC3, 6 ch, 448 Кбит/с)
Субтитры: Русские, украинские, английские
General
Unique ID : 236257415574497074519537103238716486223 (0xB1BD85EB71C3B5FD83AEE664FE64724F)
Complete name : D:\The.Pianist.2002.BDRip.AVC.ExKinoRay.mkv
Format : Matroska
Format version : Version 2
File size : 4.50 GiB
Duration : 2 h 28 min
Overall bit rate : 4 331 kb/s
Movie name : The Pianist (2002) from ExKinoRay
Encoded date : UTC 2018-12-03 22:43:42
Writing application : mkvmerge v5.6.0 ('Kenya Kane') built on May 27 2012 16:44:04
Writing library : libebml v1.2.3 + libmatroska v1.3.0

Video
ID : 1
Format : AVC
Format/Info : Advanced Video Codec
Format profile : High@L4.1
Format settings, CABAC : Yes
Format settings, ReFrames : 12 frames
Codec ID : V_MPEG4/ISO/AVC
Duration : 2 h 28 min
Bit rate : 2 790 kb/s
Width : 1 024 pixels
Height : 552 pixels
Display aspect ratio : 1.85:1
Frame rate mode : Constant
Frame rate : 23.976 (24000/1001) FPS
Color space : YUV
Chroma subsampling : 4:2:0
Bit depth : 8 bits
Scan type : Progressive
Bits/(Pixel*Frame) : 0.206
Stream size : 2.82 GiB (63%)
Title : Enigma
Writing library : x264 core 152 r2851 ba24899
Encoding settings : cabac=1 / ref=12 / deblock=1:-2:-2 / analyse=0x3:0x113 / me=umh / subme=10 / psy=1 / psy_rd=1.03:0.05 / mixed_ref=1 / me_range=32 / chroma_me=1 / trellis=2 / 8x8dct=1 / cqm=0 / deadzone=21,11 / fast_pskip=0 / chroma_qp_offset=-3 / threads=12 / lookahead_threads=3 / sliced_threads=0 / nr=0 / decimate=0 / interlaced=0 / bluray_compat=0 / constrained_intra=0 / bframes=10 / b_pyramid=2 / b_adapt=2 / b_bias=0 / direct=3 / weightb=1 / open_gop=0 / weightp=2 / keyint=240 / keyint_min=23 / scenecut=40 / intra_refresh=0 / rc=2pass / mbtree=0 / bitrate=2790 / ratetol=1.0 / qcomp=0.60 / qpmin=0 / qpmax=51 / qpstep=4 / cplxblur=20.0 / qblur=0.5 / ip_ratio=1.30 / pb_ratio=1.20 / aq=1:1.00
Language : English
Default : Yes
Forced : No
Color range : Limited
Color primaries : BT.709
Transfer characteristics : BT.709
Matrix coefficients : BT.709

Audio #1
ID : 2
Format : AC-3
Format/Info : Audio Coding 3
Mode extension : CM (complete main)
Format settings, Endianness : Big
Codec ID : A_AC3
Duration : 2 h 28 min
Bit rate mode : Constant
Bit rate : 192 kb/s
Channel(s) : 2 channels
Channel positions : Front: L R
Sampling rate : 48.0 kHz
Frame rate : 31.250 FPS (1536 spf)
Compression mode : Lossy
Stream size : 204 MiB (4%)
Title : Dub (SDI Media)
Language : Russian
Default : Yes
Forced : No

Audio #2
ID : 3
Format : AC-3
Format/Info : Audio Coding 3
Mode extension : CM (complete main)
Format settings, Endianness : Big
Codec ID : A_AC3
Duration : 2 h 28 min
Bit rate mode : Constant
Bit rate : 448 kb/s
Channel(s) : 6 channels
Channel positions : Front: L C R, Side: L R, LFE
Sampling rate : 48.0 kHz
Frame rate : 31.250 FPS (1536 spf)
Compression mode : Lossy
Stream size : 477 MiB (10%)
Title : AVO (Яроцкий)
Language : Russian
Default : No
Forced : No

Audio #3
ID : 4
Format : AC-3
Format/Info : Audio Coding 3
Mode extension : CM (complete main)
Format settings, Endianness : Big
Codec ID : A_AC3
Duration : 2 h 28 min
Bit rate mode : Constant
Bit rate : 448 kb/s
Channel(s) : 6 channels
Channel positions : Front: L C R, Side: L R, LFE
Sampling rate : 48.0 kHz
Frame rate : 31.250 FPS (1536 spf)
Compression mode : Lossy
Stream size : 477 MiB (10%)
Language : Ukrainian
Default : No
Forced : No

Audio #4
ID : 5
Format : AC-3
Format/Info : Audio Coding 3
Mode extension : CM (complete main)
Format settings, Endianness : Big
Codec ID : A_AC3
Duration : 2 h 28 min
Bit rate mode : Constant
Bit rate : 448 kb/s
Channel(s) : 6 channels
Channel positions : Front: L C R, Side: L R, LFE
Sampling rate : 48.0 kHz
Frame rate : 31.250 FPS (1536 spf)
Compression mode : Lossy
Stream size : 477 MiB (10%)
Language : English
Default : No
Forced : No

Text #1
ID : 6
Format : UTF-8
Codec ID : S_TEXT/UTF8
Codec ID/Info : UTF-8 Plain Text
Title : Forced
Language : Russian
Default : No
Forced : No

Text #2
ID : 7
Format : UTF-8
Codec ID : S_TEXT/UTF8
Codec ID/Info : UTF-8 Plain Text
Title : Full
Language : Russian
Default : No
Forced : No

Text #3
ID : 8
Format : UTF-8
Codec ID : S_TEXT/UTF8
Codec ID/Info : UTF-8 Plain Text
Language : Ukrainian
Default : No
Forced : No

Text #4
ID : 9
Format : UTF-8
Codec ID : S_TEXT/UTF8
Codec ID/Info : UTF-8 Plain Text
Language : English
Default : No
Forced : No

Menu
00:00:00.000 : en:Chapter 1
00:05:23.114 : en:Chapter 2
00:10:04.478 : en:Chapter 3
00:14:24.738 : en:Chapter 4
00:20:28.060 : en:Chapter 5
00:26:55.238 : en:Chapter 6
00:31:10.785 : en:Chapter 7
00:39:07.678 : en:Chapter 8
00:47:15.874 : en:Chapter 9
00:53:22.365 : en:Chapter 10
00:58:10.487 : en:Chapter 11
01:03:48.241 : en:Chapter 12
01:10:53.958 : en:Chapter 13
01:18:09.309 : en:Chapter 14
01:22:06.004 : en:Chapter 15
01:29:51.594 : en:Chapter 16
01:38:18.058 : en:Chapter 17
01:43:38.962 : en:Chapter 18
01:50:10.770 : en:Chapter 19
01:56:17.512 : en:Chapter 20
02:01:22.441 : en:Chapter 21
02:08:48.178 : en:Chapter 22
02:15:23.365 : en:Chapter 23
02:21:30.607 : en:Chapter 24
Релиз от:

Автор релиза: pb.wtf



Скачать Пианист через торрент http://img10.lostpic.net/2016/04/21/5d720c77085c4df6fde83114fa661450.jpg Скачать фильм Пианист через торрент бесплантно в хорошем качестве Описание: Фильм повествует о жизни Варшавского гетто во время второй мировой войны. В основу положена реальная история польского музыканта ... 5.5 10 2
Info! Золотая раздача, скачанное не засчитывается.
Торрент: Зарегистрирован [2018-12-04 14:05] · скачан: 62 раз
Статус: √ проверено
Размер: 4.5 GB
Как cкачать? Как скачать Пианист через торрент | UTorrent

28-11-2019 20:33  

Отключить всю рекламу на сайте

    Дорогой пользователь! Огромная просьба, поблагодарите релизера, оцените раздачу и оставьте свои комментарий, если Вы скачали Пианист через торрент бесплатно! Внесите свою лепту в развитие PiratBit!
    Комментировать посты могут только пользователи прошедшие не сложную регистрацию
    Показать сообщения:    

    Пианист через торрент
    Скачать бесплатно Пианист
    Пианист скачать торрент
    Пианист смотреть онлайн
    Cкачать фильм Пианист бесплатно
    Пианист скачать торрент в хорошем качестве
    Пианист смотреть онлайн бесплатно в хорошем качестве


    Вы не можете начинать темы
    Вы не можете отвечать на сообщения
    Вы не можете редактировать свои сообщения
    Вы не можете удалять свои сообщения
    Вы не можете голосовать в опросах
    Вы не можете прикреплять файлы к сообщениям
    Вы можете скачивать файлы