Мега распродажа FORZA HORIZON 4 ULTIMATE+ВСЕ DLC+ОНЛАЙН всего за 499р. 349 руб. (супер цена). Внимание количество ограничено!!!

Лицензия

30

iTunes

мы

iTunes

1

1 сезон

Чернобыль

1 сезон

Ральф против интернета

MVO

Покемон. Детектив Пикачу

8 сезон

Игра престолов

iTunes

1+1

ИГРА 18+

pack

ВАЖНО

!!Акция!!

Alien_RageХит недели

RePack

Resident Evil 21
pack

RePack

Metro:Exodus

!!Акция!!

Alien_Rage

RePack

fifa19

RePack

Assassins Creed: Odyssey

RePack

NEED FOR SPEED™ PAYBACK

3 сезон

9 сезон

Бесстыжие 9 сезон

Все сериалы

все сериалы на PB.wtf

RePack

FAR CRY 5
Ребята, катастрофически не хватает 2730р. для оплаты серверов за МАЙ (всвязи с блокировками трафик упал в 3 раза), 1-2р., выручайте.
  

Летящие сквозь ночь / Nightflyers / Сезон: 1 / Серия: 1-10 из 10 (Эндрю МакКарти, Майк Кэхилл, Мэгги Кили) [2018, ужасы, фантастика, WEB-DLRip] [MVO] (Jaskier) pb.wtf

Летящие сквозь ночь через торрент pb.wtf

Размер: 5.19 GB | Добавлен: 6 мес. назад | Торрент скачан:16 раз
Скачать  

04-12-2018 17:47 Летящие сквозь ночь Скачать торрент  

Летящие сквозь ночь / Nightflyers
Год выпуска: 2018
Страна: США
Жанр: ужасы, фантастика
Продолжительность: ~00:54:00
Перевод: Профессиональный (многоголосый закадровый) Jaskier
Субтитры: английские

Режиссёр: Эндрю МакКарти, Майк Кэхилл, Мэгги Кили

В ролях: Джоди Смит, Гретхен Мол, Оуэн Мэкен, Дэвид Аджала, Энгус Сэмпсон, Сэм Страйк, Майя Эшет, Брайан Ф. О`Бирн, Филлип Риз

Описание: История о группе исследователей, которые отправляются на далекую планету, чтобы найти загадочное существо, но в пути сталкиваются с другими опасностями.

rating

Качество: WEB-DLRip
Формат: AVI
Видео кодек: XvID
Аудио кодек: AC3
Видео: XviD, ~ 1400 Кбит/с, 704x352
Аудио 1: MP3, 48.0 kHz, 2Ch, 128 Kbps - MVO
Аудио 2: MP3, 48.0 kHz, 2Ch, 128 Kbps - ENG
General
Complete name : E:\Nightflyers Season 1 (WEB-DL l 400p l JASKiER)\Nightflyers.S01E01.400p.Jaskier.avi
Format : AVI
Format/Info : Audio Video Interleave
File size : 697 MiB
Duration : 58 min 20 s
Overall bit rate : 1 670 kb/s
Writing application : VirtualDubMod 1.5.10.3 | www.virtualdub-fr.org || (build 2550/release)
Writing library : VirtualDubMod build 2550/release

Video
ID : 0
Format : MPEG-4 Visual
Format profile : Advanced Simple@L5
Format settings : BVOP2 / Custom Matrix
Format settings, BVOP : 2
Format settings, QPel : No
Format settings, GMC : No warppoints
Format settings, Matrix : Custom
Codec ID : XVID
Codec ID/Hint : XviD
Duration : 58 min 20 s
Bit rate : 1 337 kb/s
Width : 704 pixels
Height : 352 pixels
Display aspect ratio : 2.000
Frame rate : 23.976 (24000/1001) FPS
Color space : YUV
Chroma subsampling : 4:2:0
Bit depth : 8 bits
Scan type : Progressive
Compression mode : Lossy
Bits/(Pixel*Frame) : 0.225
Stream size : 558 MiB (80%)
Writing library : XviD 73

Audio #1
ID : 1
Format : MPEG Audio
Format version : Version 1
Format profile : Layer 3
Format settings : Joint stereo / MS Stereo
Mode : Joint stereo
Mode extension : MS Stereo
Codec ID : 55
Codec ID/Hint : MP3
Duration : 58 min 20 s
Bit rate mode : Constant
Bit rate : 128 kb/s
Channel(s) : 2 channels
Sampling rate : 48.0 kHz
Compression mode : Lossy
Stream size : 53.4 MiB (8%)
Alignment : Aligned on interleaves

Audio #2
ID : 2
Format : MPEG Audio
Format version : Version 1
Format profile : Layer 3
Format settings : Joint stereo / MS Stereo
Mode : Joint stereo
Mode extension : MS Stereo
Codec ID : 55
Codec ID/Hint : MP3
Duration : 58 min 20 s
Bit rate mode : Constant
Bit rate : 128 kb/s
Channel(s) : 2 channels
Sampling rate : 48.0 kHz
Compression mode : Lossy
Stream size : 53.4 MiB (8%)
Alignment : Aligned on interleaves
скриншот  скриншот  скриншот  
Внимание! Раздача ведётся путём добавления новых серий; при каждом добавлении создётся новый торрент. Чтобы начать докачку новой серии, пользователям необходимо сделать следующее:
Остановить скачивание.
Удалить старый торрент у себя из клиента (старые серии удалять не надо).
Скачать новый торрент и запустить его у себя в клиенте вместо старого, при этом указать клиенту путь в старую папку куда и должно происходить скачивание новых серий.

Ваш клиент при этом должен произвести хеширование (проверку) старой папки (если не производит сам - помогите ему сделать это), и будет докачивать только те серии которых у вас ещё нет. Старые серии при этом не удаляются, а продолжают раздаваться!
Eсли вы уже удалили старые серии, то предотвратить повторную закачку старых серий можно, отжав галочку в соответсвующих местах при запуске нового торрента. По возможности, желательно не удалять старые серии как можно дольше чтобы релизёр не столько продолжал раздавать старые серии, а смог сконцентрироваться на новых.
pb.wtf



Скачать Летящие сквозь ночь через торрент https://i108.fastpic.ru/big/2018/1201/51/e4cc2ac2c096269fbd2549d2496db051.jpg Скачать фильм Летящие сквозь ночь через торрент бесплантно в хорошем качестве Описание: История о группе исследователей, которые отправляются на далекую планету, чтобы найти загадочное существо, но в пути сталкиваются ... 10 10 1
Торрент: Зарегистрирован [2018-12-20 09:51] · скачан: 16 раз
Статус: √ проверено
Размер: 5.19 GB
Как cкачать? Как скачать Летящие сквозь ночь через торрент | qTorrent

% Раздел Тема Автор DL S | L
Зарубежные сериалы [ 12.76 GB ] Летящие сквозь ночь / Nightflyers / Сезон: 1 / Серии: 1-10 из 10 [2018 WEBRip 1080p] MVO [NewStudio] bober100 Скачать
1 | 0
Зарубежные сериалы [ 5.47 GB ] Летящие сквозь ночь / Nightflyers / Сезон: 1 / Серии: 1-10 из 10 [2018 WEBRip] MVO [KosharaSerials] bober100 Скачать
1 | 0
Зарубежные сериалы [ 12.71 GB ] Летящие сквозь ночь / Nightflyers / Сезон: 1 / Серия: 1-10 из 10 [2018 WEBRip 720p] [DVO] killermax2013 Скачать
1 | 0
Зарубежные сериалы [ 14.15 GB ] Летящие сквозь ночь / Nightflyers / Сезон 1 / Серии 1-10 из 10 [2018 WEB-DL 1080p] MVO [Jaskier] bober100 Скачать
1 | 0
Зарубежные сериалы [ 5.75 GB ] Летящие сквозь ночь / Nightflyers / Сезон: 1 / Серии: 1-10 из 10 [2018 WEB-DLRip] MVO [LostFilm] bober100 Скачать
1 | 0
Зарубежные сериалы [ 13.24 GB ] Летящие сквозь ночь / Nightflyers / Сезон: 1 / Серии: 1-10 из 10 [2018 WEB-DL 1080p] MVO [LostFilm] bober100 Скачать
1 | 0
Зарубежные сериалы [ 5.31 GB ] Летящие сквозь ночь / Nightflyers / Manifest / Сезон: 1 / Серии: 1-10 из 10 [2018 WEBRip] [MVO] killermax2013 Скачать
2 | 0


>> Регистрируемся здесь <<






Отзывы и комментарии о схеме читаем и пишем здесь: ---> Отзывы и комментарии о схеме

Новые благодарочки в телеграм довольных пользователей:
скриншот   скриншот   скриншот   скриншот   скриншот
    Дорогой пользователь! Огромная просьба, поблагодарите релизера, оцените раздачу и оставьте свои комментарий, если Вы скачали Летящие сквозь ночь через торрент бесплатно! Внесите свою лепту в развитие PiratBit!
    Комментировать посты могут только пользователи прошедшие не сложную регистрацию
    Показать сообщения:    

    Летящие сквозь ночь через торрент
    Скачать бесплатно Летящие сквозь ночь
    Летящие сквозь ночь скачать торрент
    Летящие сквозь ночь смотреть онлайн
    Cкачать фильм Летящие сквозь ночь бесплатно
    Летящие сквозь ночь скачать торрент в хорошем качестве
    Летящие сквозь ночь смотреть онлайн бесплатно в хорошем качестве


    Вы не можете начинать темы
    Вы не можете отвечать на сообщения
    Вы не можете редактировать свои сообщения
    Вы не можете удалять свои сообщения
    Вы не можете голосовать в опросах
    Вы не можете прикреплять файлы к сообщениям
    Вы можете скачивать файлы