новый адрес
Ссылка на приватное зеркало всего за 1$. Внимание количество ограничено!!!

iTunes

1+1

iTunes

мы

WEB-DL

1

iTunes

Чернобыль

iTunes

Ральф против интернета

Лицензия

ПШазам

Лицензия

Оно 2

Лицензия

30
pack

Вам бонус

ВАЖНО

!!Акция!!

Alien_RageХит недели

RePack

Resident Evil 21

ИГРА 18+

pack

RePack

jed

!!Акция!!

Alien_Rage

RePack

fifa19

RePack

Assassins Creed: Odyssey

RePack

NEED FOR SPEED™ PAYBACK

3 сезон

9 сезон

Бесстыжие 9 сезон

Все сериалы

все сериалы на PB.wtf

RePack

FAR CRY 5
Ребята, катастрофически не хватает 1900р. для оплаты серверов за Октябрь (всвязи с блокировками трафик упал в 3 раза), 1-2р., выручайте.
  

Дубликат / Jonathan (Билл Оливер)(AMAZON)[2018 г., фантастика, драма, WEB-DLRip, Профессиональный многоголосый закадровый "iTunes"] pb.wtf

Дубликат через торрент pb.wtf

Размер: 705 MB | Добавлен: 1 год назад | Торрент скачан:135 раз
Скачать  

04-12-2018 18:51 Дубликат Скачать торрент  

Дубликат / Jonathan
Год выпуска: 2018
Страна: США / Manis Film,Raised by Wolves
Жанр: фантастика, драма
Продолжительность: 01:40:45
Перевод: Профессиональный многоголосый закадровый (iTunes)

Режиссер: Билл Оливер

rating

В ролях: Энсел Элгорт, Сьюки Уотерхаус, Патриша Кларксон, Мэтт Бомер, Дуглас Ходж, Сулейман Си Саване, Шунори Раманатхан, Джо Эгендер, Йен Унтерман, Алок Тевари

Описание: Как многие жители Манхэттена, Джонатан просыпается ровно в 7 утра и отправляется на работу, а вечером ложится спать. Вроде бы всё, как у всех. Если бы не одно «но» - каждый день молодой человек проживает две жизни. Пока одна личность спит, вторая ведёт активную жизнь. И каждое утро Джонатану приходит видео от самого себя - о том, что он делал во второй половине дня.

Но однажды происходит событие, которое приводит к необратимым последствиям.

Качество: WEB-DLRip
Формат: AVI
Видео кодек: XviD
Аудио кодек: MP3
Видео: 672x280 (2.40:1), 23.976 fps, XviD build 50 ~840 kbps avg, 0.19 bit/pixel
Аудио: 48 kHz, MPEG Layer 3, 2 ch, ~128.00 kbps avg

Общее
Полное имя : F:\ФИЛЬМЫ\Дубликат.2018.(AMAZON).WEB-DLRip.avi
Формат : AVI
Формат/Информация : Audio Video Interleave
Размер файла : 705 Мбайт
Продолжительность : 1 ч. 40 м.
Общий поток : 978 Кбит/сек
Программа кодирования : VirtualDubMod 1.5.10.3 | www.virtualdub-fr.org || (build 2550/release)
Библиотека кодирования : VirtualDubMod build 2550/release

Видео
Идентификатор : 0
Формат : MPEG-4 Visual
Профиль формата : Advanced Simple@L5
Настройки формата : BVOP1
Параметр BVOP формата : 1
Параметр QPel формата : Нет
Параметр GMC формата : Без точки перехода
Параметр матрицы формата : Default (MPEG)
Идентификатор кодека : XVID
Идентификатор кодека/Подсказка : XviD
Продолжительность : 1 ч. 40 м.
Битрейт : 841 Кбит/сек
Ширина : 672 пикселя
Высота : 280 пикселей
Соотношение сторон : 2,40:1
Частота кадров : 23,976 (24000/1001) кадра/сек
Цветовое пространство : YUV
Субдискретизация насыщенности : 4:2:0
Битовая глубина : 8 бит
Тип развёртки : Прогрессивная
Метод сжатия : С потерями
Бит/(Пиксели*Кадры) : 0.186
Размер потока : 606 Мбайт (86%)
Библиотека кодирования : XviD 1.2.1 (UTC 2008-12-04)

Аудио
Идентификатор : 1
Формат : MPEG Audio
Версия формата : Version 1
Профиль формата : Layer 3
Настройки формата : Joint stereo / MS Stereo
Идентификатор кодека : 55
Идентификатор кодека/Подсказка : MP3
Продолжительность : 1 ч. 40 м.
Вид битрейта : Постоянный
Битрейт : 128 Кбит/сек
Каналы : 2 канала
Частота : 48,0 КГц
Частота кадров : 41,667 кадра/сек (1152 SPF)
Метод сжатия : С потерями
Размер потока : 92,2 Мбайт (13%)
Выравнивание : Соединение по промежуткам
Продолжительность промежутка : 42 мс. (1,00 видеокадр)
Время предзагрузки промежутка : 504 мс.
Библиотека кодирования : LAME3.99r
Настройки программы : -m j -V 4 -q 2 -lowpass 17 -b 128

pb.wtf



Скачать Дубликат через торрент http://pic1.kartinco.top/images/11/3fi2y.jpg Скачать фильм Дубликат через торрент бесплантно в хорошем качестве Описание: Как многие жители Манхэттена, Джонатан просыпается ровно в 7 утра и отправляется на работу, а вечером ложится спать. Вроде бы ... 10 10 1
Торрент: Зарегистрирован [2018-12-04 18:51] · скачан: 135 раз
Статус: √ проверено
Размер: 705 MB
Как cкачать? Как скачать Дубликат через торрент | qTorrent

% Раздел Тема Автор DL S | L
Фильмы 2018 [DVDrip, WEB-DLRip, HDrip] (DUB, MVO) [ 1.42 GB ] Дубликат / Jonathan [2018 BDRip] MVO Twi7ter Скачать
1 | 0
Фильмы 2018 [DVDrip, WEB-DLRip, HDrip] (DUB, MVO) [ 1.41 GB ] Дубликат / Jonathan [2018 BDRip] MVO bober100 Скачать
1 | 0
Фильмы (Blu-ray, BD-Remux, HDDVD) [ 17.93 GB ] Дубликат / Jonathan [2018 BD Remux 1080p] MVO bober100 Скачать
1 | 0
Фильмы 2018 [DVDrip, WEB-DLRip, HDrip] (DUB, MVO) [ 1.8 GB ] Дубликат / Jonathan [2018 WEB-DLRip-AVC] MVO bober100 Скачать
5 | 0

28-11-2019 20:33  

Отключить всю рекламу на сайте

    Дорогой пользователь! Огромная просьба, поблагодарите релизера, оцените раздачу и оставьте свои комментарий, если Вы скачали Дубликат через торрент бесплатно! Внесите свою лепту в развитие PiratBit!
    Комментировать посты могут только пользователи прошедшие не сложную регистрацию
    Показать сообщения:    

    Дубликат через торрент
    Скачать бесплатно Дубликат
    Дубликат скачать торрент
    Дубликат смотреть онлайн
    Cкачать фильм Дубликат бесплатно
    Дубликат скачать торрент в хорошем качестве
    Дубликат смотреть онлайн бесплатно в хорошем качестве


    Вы не можете начинать темы
    Вы не можете отвечать на сообщения
    Вы не можете редактировать свои сообщения
    Вы не можете удалять свои сообщения
    Вы не можете голосовать в опросах
    Вы не можете прикреплять файлы к сообщениям
    Вы можете скачивать файлы