Ссылка на приватное зеркало нашего сайта всего за 1$. Внимание количество ограничено!!!

2 сезон

iTunes

1 сезон

1

iTunes

iTunes

iTunes

1 сезон

RePack

30

ИГРА 18+

pack

ВАЖНО

!!Акция!!

Alien_RageХит недели

RePack

MK11
pack

Забери бонус

RePack

jed

!!Акция!!

Alien_Rage

RePack

fifa19

RePack

Assassins Creed: Odyssey

RePack

NEED FOR SPEED™ PAYBACK

4 сезон

9 сезон

Бесстыжие 9 сезон

Все сериалы

все сериалы на PB.wtf

RePack

FAR CRY 5
  

Тайны госпожи Кирсановой / Сезон: 1 / Серии: 1-50 из 50 (Сергей Мезенцев, Виталий Бордачёв, Алексей Колмогоров) [2018, Детектив, WEBRip] pb.wtf

Тайны госпожи Кирсановой через торрент pb.wtf

Размер: 30.46 GB | Добавлен: 1 год 9 мес. назад | Торрент скачан:32 раза
Скачать  

04-12-2018 20:33 Тайны госпожи Кирсановой Скачать торрент  

Тайны госпожи Кирсановой Год выпуска: 2018
Производство: Boomerang Film Company
Жанр: Детектив
Продолжительность: 00:49:46
Субтитры: нет

Режиссёр: Сергей Мезенцев, Виталий Бордачёв, Алексей Колмогоров

В ролях:

Ольга Лерман, Евгений Шириков, Антон Батырев, Ольга Плешкова, Евгения Симонова, Иван Шабалтас, Николай Денисов, Максим Битюков, Арсений Сергеев, Марина Мезенцева, Иван Рыжиков, Александр Бобров (IV), Софья Зайка, Павел Хрулёв, Елена Радевич, Анастасия Шемякина, Игорь Поселенов, Аделина Коблова, Дарья Басаргина, Ирина Сенотова, Сергей Савлук, Игорь Кулачко, Андрей Снежко, Евгений Сафронов, Евгений Гусев, Юрий Шлыков, Александра Никифорова, Анна Соловейчик, Михаил Гаврилов (II), Илья Ильиных, Андрей Евдокимов, Александр Городиский, Дмитрий Белоцерковский

Описание:

1878 год. В небольшой уездный город Богородск приезжает молодая учительница математики Лариса Дмитриевна Кирсанова.
Госпожу Кирсанову привело сюда желание разыскать своего жениха – молодого дворянина Павла Бестужева, который таинственно исчез за день до венчания, не попрощавшись и не оставив даже письма. Павел родом из Богородска, в котором из родных осталась только старушка мать. Здесь же проживает и любимая тетка Ларисы – Лизавета Прокофьевна.
Тем временем, после окончания русско-турецкой войны с Балкан возвращаются участники боевых сражений. Город ликует, встречая героев!
Приехав в провинцию, Лариса Дмитриевна даже не догадывается о том, что её ожидает совсем другая жизнь, в которой в полной мере раскроются ее удивительные способности, ум и характер. Отныне ее жизнь наполнена загадками, риском и раскрытием громких преступлений!..

Сэмпл: http://multi-up.com/1216591


Качество: WEBRip
Формат: AVI
Видео кодек: XviD
Аудио кодек: AC3

Видео: 720x400 (16:9), 25.000 fps, XviD build 73, 1601 Kbps, 0.22 Bits/Pixel
Аудио: 48 kHz, AC3 Dolby Digital, 2 ch, 192 Kbps
General
Complete name : Downloads.Тайны госпожи Кирсановой. Штабс-капитан.(2018).WEBRip.by.Серый1779.Files-x.avi
Format : AVI
Format/Info : Audio Video Interleave
File size : 642 MiB
Duration : 49mn 46s
Overall bit rate : 1 802 Kbps
Writing application : VirtualDubMod 1.5.10.3 | www.virtualdub-fr.org || (build 2550/release)
Writing library : VirtualDubMod build 2550/release
Video #0
ID : 0
Format : MPEG-4 Visual
Format profile : Advanced Simple@L5
Format settings, BVOP : 1
Format settings, QPel : No
Format settings, GMC : No warppoints
Format settings, Matrix : Custom
Codec ID : XVID
Codec ID/Hint : XviD
Duration : 49mn 46s
Bit rate : 1 601 Kbps
Width : 720 pixels
Height : 400 pixels
Display aspect ratio : 16:9
Frame rate : 25.000 fps
Color space : YUV
Chroma subsampling : 4:2:0
Bit depth : 8 bits
Scan type : Progressive
Compression mode : Lossy
Bits/(Pixel*Frame) : 0.222
Stream size : 570 MiB (89%)
Writing library : XviD 73
Audio #1
ID : 1
Format : AC-3
Format/Info : Audio Coding 3
Mode extension : CM (complete main)
Format settings, Endianness : Big
Codec ID : 2000
Duration : 49mn 46s
Bit rate mode : Constant
Bit rate : 192 Kbps
Channel(s) : 2 channels
Channel positions : Front: L R
Sampling rate : 48.0 KHz
Bit depth : 16 bits
Compression mode : Lossy
Stream size : 68.4 MiB (11%)
Alignment : Split accross interleaves
Interleave, duration : 40 ms (1.00 video frame)
Interleave, preload duration : 500 ms
скриншот  скриншот  скриншот  скриншот  скриншот  
(1) остановить скачивание,
(2) удалить старый торрент у себя из клиента (старые серии удалять не надо),
(3) скачать новый торрент и запустить его у себя в клиенте вместо старого, при этом указать клиенту путь в старую папку куда и должно происходить скачивание новых серий.
Ваш клиент при этом должен произвести хеширование (проверку) старой папки (если не производит сам - помогите ему сделать это), и будет докачивать только те серии которых у вас ещё нет. Старые серии при этом не удаляются, а продолжают раздаваться!
Eсли вы уже удалили старые серии, то предотвратить повторную закачку старых серий можно, отжав галочку в соответсвующих местах при запуске нового торрента. По возможности, желательно не удалять старые серии как можно дольше чтобы релизёр не столько продолжал раздавать старые серии, а смог сконцентрироваться на новых
.
pb.wtf



Скачать Тайны госпожи Кирсановой через торрент http://linkme.ufanet.ru/box/400x500/02d3256e347f87bf159897a767a6b511.jpg Скачать фильм Тайны госпожи Кирсановой через торрент бесплантно в хорошем качестве Описание: 1878 год. В небольшой уездный город Богородск приезжает молодая учительница математики Лариса Дмитриевна Кирсанова.Госпожу ... 9.3 10 12
Info! Золотая раздача, скачанное не засчитывается.
Торрент: Зарегистрирован [2019-01-18 15:39] · скачан: 32 раз
Статус: √ проверено
Размер: 30.46 GB
Как cкачать? Как скачать Тайны госпожи Кирсановой через торрент | qTorrent

% Раздел Тема Автор DL S | L
Наши сериалы [ 39.42 GB ] Тайны госпожи Кирсановой / Сезон: 1 / Серии: 1-50 из 50 [2018 история HDTVRip 720p] bober100 Скачать
1 | 0
Наши сериалы [ 32.83 GB ] Тайны госпожи Кирсановой / Сезон: 1 / Серии: 1-50 из 50 [2018 история SATRip] bober100 Скачать
1 | 0

28-11-2019 20:33  

Отключить всю рекламу на сайте

    Дорогой пользователь! Огромная просьба, поблагодарите релизера, оцените раздачу и оставьте свои комментарий, если Вы скачали Тайны госпожи Кирсановой через торрент бесплатно! Внесите свою лепту в развитие PiratBit!
    Комментировать посты могут только пользователи прошедшие не сложную регистрацию
    Показать сообщения:    

    Тайны госпожи Кирсановой через торрент
    Скачать бесплатно Тайны госпожи Кирсановой
    Тайны госпожи Кирсановой скачать торрент
    Тайны госпожи Кирсановой смотреть онлайн
    Cкачать фильм Тайны госпожи Кирсановой бесплатно
    Тайны госпожи Кирсановой скачать торрент в хорошем качестве
    Тайны госпожи Кирсановой смотреть онлайн бесплатно в хорошем качестве


    Вы не можете начинать темы
    Вы не можете отвечать на сообщения
    Вы не можете редактировать свои сообщения
    Вы не можете удалять свои сообщения
    Вы не можете голосовать в опросах
    Вы не можете прикреплять файлы к сообщениям
    Вы можете скачивать файлы