Ссылка на приватное зеркало всего за 1$. Внимание количество ограничено!!!

OK

1+1

iTunes

мы

OK

1

WEB-DLRip

Джокер

Пифагор

Ведьмак / The Witcher сериал

iTunes

ПШазам

ОК

Оно 2

iTunes

30
pack

Вам бонус

ВАЖНО

!!Акция!!

Alien_RageХит недели

RePack

Resident Evil 21

ИГРА 18+

pack

RePack

jed

RePack

fifa19

RePack

Assassins Creed: Odyssey

RePack

NEED FOR SPEED™ PAYBACK

4 сезон

9 сезон

Бесстыжие 9 сезон

Все сериалы

все сериалы на PB.wtf

RePack

FAR CRY 5
  

Прыжки во времени / Time Jumpers (Свенд Плуг Йохансен) [2018, Фантастика, WEB-DL 720p] MVO ["Синема УС"] pb.wtf

Прыжки во времени через торрент pb.wtf

Размер: 2.73 GB | Добавлен: 1 год 1 мес. назад | Торрент скачан:37 раз
Скачать  

04-12-2018 20:55 Прыжки во времени Скачать торрент  

Прыжки во времени / Time JumpersГод выпуска: 2018
Страна: США
Жанр: Фантастика
Продолжительность: 01:22:30
Перевод: Любительский (многоголосый) | "Синема УС"
Субтитры: отсутствуют

Режиссер: Свенд Плуг Йохансен

rating

В ролях:

Тейлор Герард Харт, Матильда Норхольт, Петра Стадуан

Описание:

Пять небольших, но очень интересных историй, происходящих с разными людьми в совершенно разных уголках Земли, которые объединяет одна тема: время - возможны ли путешествия во времени, можно ли таким образом изменить ход событий, и способен ли человек повлиять на судьбу.

Качество: WEB-DL 720p
Формат: MKV

Видео: h.264, 4 343 kb/s, 1280x720
Аудио#1: Русский, (AC3, 2 ch, 384 Кбит/с)
скриншот  скриншот  скриншот  

Общее
Уникальный идентификатор : 180753184038461677238563582283636737423 (0x87FBCC061D54DFF39F62576292F7058F)
Полное имя : D:\Time.Jumpers.2018.P.WEB-DL.72Op_KOSHARA.mkv
Формат : Matroska
Версия формата : Version 2
Размер файла : 2,73 Гбайт
Продолжительность : 1 ч. 22 м.
Режим общего битрейта : Переменный
Общий поток : 4728 Кбит/сек
Дата кодирования : UTC 2018-12-04 16:37:15
Программа кодирования : mkvmerge v8.3.0 ('Over the Horizon') 64bit
Библиотека кодирования : libebml v1.3.1 + libmatroska v1.4.2

Видео
Идентификатор : 1
Формат : AVC
Формат/Информация : Advanced Video Codec
Профиль формата : High@L4.1
Параметр CABAC формата : Да
Параметр RefFrames формата : 4 кадра
Идентификатор кодека : V_MPEG4/ISO/AVC
Продолжительность : 1 ч. 22 м.
Вид битрейта : Переменный
Битрейт : 4343 Кбит/сек
Максимальный битрейт : 5000 Кбит/сек
Ширина : 1280 пикселей
Высота : 720 пикселей
Соотношение сторон : 16:9
Режим частоты кадров : Постоянный
Частота кадров : 23,976 (24000/1001) кадра/сек
Стандарт вещания : Component
Цветовое пространство : YUV
Субдискретизация насыщенности : 4:2:0
Битовая глубина : 8 бит
Тип развёртки : Прогрессивная
Бит/(Пиксели*Кадры) : 0.192
Размер потока : 2,45 Гбайт (90%)
Default : Да
Forced : Нет
Цветовой диапазон : Limited
Основные цвета : BT.709
Характеристики трансфера : BT.709
Коэффициенты матрицы : BT.709

Аудио
Идентификатор : 2
Формат : AC-3
Формат/Информация : Audio Coding 3
Расширение режима : CM (complete main)
Параметр Endianness формата : Big
Идентификатор кодека : A_AC3
Продолжительность : 1 ч. 22 м.
Вид битрейта : Постоянный
Битрейт : 384 Кбит/сек
Каналы : 2 канала
Расположение каналов : Front: L R
Частота : 48,0 КГц
Частота кадров : 31,250 кадров/сек (1536 spf)
Метод сжатия : С потерями
Размер потока : 227 Мбайт (8%)
Default : Да
Forced : Нет

pb.wtf



Скачать Прыжки во времени через торрент http://img14.lostpic.net/2018/12/04/6665e24e0c91c5984777cc2214e687cc.jpg Скачать фильм Прыжки во времени через торрент бесплантно в хорошем качестве Описание: Пять небольших, но очень интересных историй, происходящих с разными людьми в совершенно разных уголках Земли, которые объединяет ... 10 10 2
Торрент: Зарегистрирован [2018-12-04 20:55] · скачан: 37 раз
Статус: T временная
Размер: 2.73 GB
Как cкачать? Как скачать Прыжки во времени через торрент | qTorrent

% Раздел Тема Автор DL S | L
T Фильмы (мультфильмы) cо спонсором показа (Новинки AVI/MKV) [ 1.37 GB ] Прыжки во времени / Time Jumpers [2018 WEB-DLRip] MVO ["Синема УС"] bober100 Скачать
1 | 0

28-11-2019 20:33  

Отключить всю рекламу на сайте

05-12-2018 02:19 Прыжки во времени Скачать торрент  

как? как можно запороть фильм про путешествия во времени? как?! я не припомню ни одного фильма в этой тематике с таким низким рейтингом. есть еще надежда что этот Свенд Плуг не заплатил съемочной группе и она всей бандой проголосовала на понижение рейта - все-таки 55 проголосовавших это мало, но...
зы. а трейлер вроде бодрый такой


ззы. ска, IMDb уже 2.9. походу плуг, козел, все же запорол кино((pb.wtf



    Дорогой пользователь! Огромная просьба, поблагодарите релизера, оцените раздачу и оставьте свои комментарий, если Вы скачали Прыжки во времени через торрент бесплатно! Внесите свою лепту в развитие PiratBit!
    Комментировать посты могут только пользователи прошедшие не сложную регистрацию
    Показать сообщения:    

    Прыжки во времени через торрент
    Скачать бесплатно Прыжки во времени
    Прыжки во времени скачать торрент
    Прыжки во времени смотреть онлайн
    Cкачать фильм Прыжки во времени бесплатно
    Прыжки во времени скачать торрент в хорошем качестве
    Прыжки во времени смотреть онлайн бесплатно в хорошем качестве


    Вы не можете начинать темы
    Вы не можете отвечать на сообщения
    Вы не можете редактировать свои сообщения
    Вы не можете удалять свои сообщения
    Вы не можете голосовать в опросах
    Вы не можете прикреплять файлы к сообщениям
    Вы можете скачивать файлы