Ссылка на приватное зеркало всего за 1$. Внимание количество ограничено!!!

OK

1+1

iTunes

мы

OK

1

WEB-DLRip

Джокер

Пифагор

Ведьмак / The Witcher сериал

iTunes

ПШазам

ОК

Оно 2

iTunes

30
pack

Вам бонус

ВАЖНО

!!Акция!!

Alien_RageХит недели

RePack

Resident Evil 21

ИГРА 18+

pack

RePack

jed

RePack

fifa19

RePack

Assassins Creed: Odyssey

RePack

NEED FOR SPEED™ PAYBACK

4 сезон

9 сезон

Бесстыжие 9 сезон

Все сериалы

все сериалы на PB.wtf

RePack

FAR CRY 5
  

Последнее рождество в Вермонте / Last Vermont Christmas (Дэвид Джексон) [2018, драма, HDTVRip 720p] MVO ["Синема УС"] pb.wtf

Последнее рождество в Вермонте через торрент pb.wtf

Размер: 2.87 GB | Добавлен: 1 год 1 мес. назад | Торрент скачан:9 раз
Скачать  

04-12-2018 21:09 Последнее рождество в Вермонте Скачать торрент  

Последнее рождество в Вермонте / Last Vermont ChristmasГод выпуска: 2018
Страна: США
Жанр: драма
Продолжительность: 01:24:32
Перевод: Любительский (многоголосый) | "Синема УС"
Субтитры: отсутствуют

Режиссер: Дэвид Джексон

rating

В ролях:

Ашлин Алесси, Кинси Боуэн, Джастин Брюнинг, Эрин Кехилл, Самара Конли, Катрин Коркоран, Роб Фигуроа, Адлин Дженнингс, Чантал Морис, Джим О'Харе

Описание:

Сестры Марвин собираются в родительском доме вместе, чтобы отметить Рождество в последний раз...Так ли это?

Качество: HDTVRip 720p
Формат: MKV

Видео: h.264,4 472 kb/s, 1280x720
Аудио#1: Русский, (AC3, 2 ch, 384 Кбит/с)
скриншот  скриншот  скриншот  

Общее
Уникальный идентификатор : 213933564843177430233489721976762040785 (0xA0F21B19E8D85F69BEDE481DA35E81D1)
Полное имя : D:\Last.Vermont.Christmas.2018.P.HDTV.72Op_KOSHARA.mkv
Формат : Matroska
Версия формата : Version 2
Размер файла : 2,87 Гбайт
Продолжительность : 1 ч. 24 м.
Режим общего битрейта : Переменный
Общий поток : 4858 Кбит/сек
Дата кодирования : UTC 2018-12-04 14:20:19
Программа кодирования : mkvmerge v8.3.0 ('Over the Horizon') 64bit
Библиотека кодирования : libebml v1.3.1 + libmatroska v1.4.2

Видео
Идентификатор : 1
Формат : AVC
Формат/Информация : Advanced Video Codec
Профиль формата : High@L4.1
Параметр CABAC формата : Да
Параметр RefFrames формата : 4 кадра
Идентификатор кодека : V_MPEG4/ISO/AVC
Продолжительность : 1 ч. 24 м.
Вид битрейта : Переменный
Битрейт : 4472 Кбит/сек
Максимальный битрейт : 5000 Кбит/сек
Ширина : 1280 пикселей
Высота : 720 пикселей
Соотношение сторон : 16:9
Режим частоты кадров : Постоянный
Частота кадров : 23,976 (24000/1001) кадра/сек
Стандарт вещания : Component
Цветовое пространство : YUV
Субдискретизация насыщенности : 4:2:0
Битовая глубина : 8 бит
Тип развёртки : Прогрессивная
Бит/(Пиксели*Кадры) : 0.198
Размер потока : 2,59 Гбайт (90%)
Default : Да
Forced : Нет
Цветовой диапазон : Limited
Основные цвета : BT.709
Характеристики трансфера : BT.709
Коэффициенты матрицы : BT.709

Аудио
Идентификатор : 2
Формат : AC-3
Формат/Информация : Audio Coding 3
Расширение режима : CM (complete main)
Параметр Endianness формата : Big
Идентификатор кодека : A_AC3
Продолжительность : 1 ч. 24 м.
Вид битрейта : Постоянный
Битрейт : 384 Кбит/сек
Каналы : 2 канала
Расположение каналов : Front: L R
Частота : 48,0 КГц
Частота кадров : 31,250 кадров/сек (1536 spf)
Метод сжатия : С потерями
Размер потока : 232 Мбайт (8%)
Default : Да
Forced : Нет

pb.wtf



Скачать Последнее рождество в Вермонте через торрент https://b.radikal.ru/b39/1812/a0/27026ec42829.jpg Скачать фильм Последнее рождество в Вермонте через торрент бесплантно в хорошем качестве Описание: Сестры Марвин собираются в родительском доме вместе, чтобы отметить Рождество в последний раз...Так ли ... 9.7 10 3
Торрент: Зарегистрирован [2018-12-04 21:09] · скачан: 9 раз
Статус: T временная
Размер: 2.87 GB
Как cкачать? Как скачать Последнее рождество в Вермонте через торрент | qTorrent

% Раздел Тема Автор DL S | L
T Фильмы (мультфильмы) cо спонсором показа (Новинки AVI/MKV) [ 1.37 GB ] Последнее рождество в Вермонте / Last Vermont Christmas [2018 HDTVRip] MVO ["Синема УС"] bober100 Скачать
1 | 0

28-11-2019 20:33  

Отключить всю рекламу на сайте

    Дорогой пользователь! Огромная просьба, поблагодарите релизера, оцените раздачу и оставьте свои комментарий, если Вы скачали Последнее рождество в Вермонте через торрент бесплатно! Внесите свою лепту в развитие PiratBit!
    Комментировать посты могут только пользователи прошедшие не сложную регистрацию
    Показать сообщения:    

    Последнее рождество в Вермонте через торрент
    Скачать бесплатно Последнее рождество в Вермонте
    Последнее рождество в Вермонте скачать торрент
    Последнее рождество в Вермонте смотреть онлайн
    Cкачать фильм Последнее рождество в Вермонте бесплатно
    Последнее рождество в Вермонте скачать торрент в хорошем качестве
    Последнее рождество в Вермонте смотреть онлайн бесплатно в хорошем качестве


    Вы не можете начинать темы
    Вы не можете отвечать на сообщения
    Вы не можете редактировать свои сообщения
    Вы не можете удалять свои сообщения
    Вы не можете голосовать в опросах
    Вы не можете прикреплять файлы к сообщениям
    Вы можете скачивать файлы