Ссылка на приватное зеркало всего за 1$. Внимание количество ограничено!!!

OK

1+1

iTunes

мы

OK

1

WEB-DLRip

Джокер

Пифагор

Ведьмак / The Witcher сериал

iTunes

ПШазам

ОК

Оно 2

iTunes

30
pack

Вам бонус

ВАЖНО

!!Акция!!

Alien_RageХит недели

RePack

Resident Evil 21

ИГРА 18+

pack

RePack

jed

RePack

fifa19

RePack

Assassins Creed: Odyssey

RePack

NEED FOR SPEED™ PAYBACK

4 сезон

9 сезон

Бесстыжие 9 сезон

Все сериалы

все сериалы на PB.wtf

RePack

FAR CRY 5
  

Бог подмигнул в Рождество / A Godwink Christmas (Дэвид Голден, Джон Тинкер) [2018, драма, HDTVRip 720p] MVO ["Синема УС"] pb.wtf

Бог подмигнул в Рождество через торрент pb.wtf

Размер: 2.94 GB | Добавлен: 1 год 1 мес. назад | Торрент скачан:11 раз
Скачать  

04-12-2018 21:48 Бог подмигнул в Рождество Скачать торрент  

Бог подмигнул в Рождество / A Godwink ChristmasГод выпуска: 2018
Страна: США
Жанр: драма
Продолжительность: 01:26:45
Перевод: Любительский (многоголосый) | "Синема УС"
Субтитры: отсутствуют

Режиссер: Дэвид Голден, Джон Тинкер

rating

В ролях:

Кимберли Састад, Пол Кэмпбелл, Кэти Ли Гиффорд, Джаг Баль, Райан Александр МакДональд, Джиллз Пэнтон, Катрина Мёльман, Натали Шарп, Грейс Сунар, Люсия Уолтерс

Описание:

В канун рождества Пола неохотно принимает предложение руки и сердца от своего жениха. Ее тетя, чувствуя, что племянница не очень рада помолвке, приглашает ее к себе в Нантакет, где героиня знакомится с очаровательным владельцем гостиницы. К чему приведет эта встреча в преддверии самого главного и волшебного праздника в году?

Качество: HDTVRip 720p
Формат: MKV

Видео: h.264, 4 458 kb/s, 1280x720
Аудио#1: Русский, (AC3, 2 ch, 384 Кбит/с)
скриншот  скриншот  скриншот  

Общее
Уникальный идентификатор : 191912111974348687478799036748886229106 (0x9060EDA5FFD6FC13A83EDD06D3F0C072)
Полное имя : D:\A.Godwink.Christmas.2018.P.HDTV.72Op_KOSHARA.mkv
Формат : Matroska
Версия формата : Version 2
Размер файла : 2,94 Гбайт
Продолжительность : 1 ч. 26 м.
Режим общего битрейта : Переменный
Общий поток : 4844 Кбит/сек
Дата кодирования : UTC 2018-12-04 14:45:42
Программа кодирования : mkvmerge v8.3.0 ('Over the Horizon') 64bit
Библиотека кодирования : libebml v1.3.1 + libmatroska v1.4.2

Видео
Идентификатор : 1
Формат : AVC
Формат/Информация : Advanced Video Codec
Профиль формата : High@L4.1
Параметр CABAC формата : Да
Параметр RefFrames формата : 4 кадра
Идентификатор кодека : V_MPEG4/ISO/AVC
Продолжительность : 1 ч. 26 м.
Вид битрейта : Переменный
Битрейт : 4458 Кбит/сек
Максимальный битрейт : 5000 Кбит/сек
Ширина : 1280 пикселей
Высота : 720 пикселей
Соотношение сторон : 16:9
Режим частоты кадров : Постоянный
Частота кадров : 23,976 (24000/1001) кадра/сек
Стандарт вещания : Component
Цветовое пространство : YUV
Субдискретизация насыщенности : 4:2:0
Битовая глубина : 8 бит
Тип развёртки : Прогрессивная
Бит/(Пиксели*Кадры) : 0.197
Размер потока : 2,64 Гбайт (90%)
Default : Да
Forced : Нет
Цветовой диапазон : Limited
Основные цвета : BT.709
Характеристики трансфера : BT.709
Коэффициенты матрицы : BT.709

Аудио
Идентификатор : 2
Формат : AC-3
Формат/Информация : Audio Coding 3
Расширение режима : CM (complete main)
Параметр Endianness формата : Big
Идентификатор кодека : A_AC3
Продолжительность : 1 ч. 26 м.
Вид битрейта : Постоянный
Битрейт : 384 Кбит/сек
Каналы : 2 канала
Расположение каналов : Front: L R
Частота : 48,0 КГц
Частота кадров : 31,250 кадров/сек (1536 spf)
Метод сжатия : С потерями
Размер потока : 238 Мбайт (8%)
Default : Да
Forced : Нет

pb.wtf



Скачать Бог подмигнул в Рождество через торрент https://b.radikal.ru/b06/1812/d1/d941106c83d1.jpg Скачать фильм Бог подмигнул в Рождество через торрент бесплантно в хорошем качестве Описание: В канун рождества Пола неохотно принимает предложение руки и сердца от своего жениха. Ее тетя, чувствуя, что племянница не очень ... 10 10 2
Торрент: Зарегистрирован [2018-12-04 21:48] · скачан: 11 раз
Статус: T временная
Размер: 2.94 GB
Как cкачать? Как скачать Бог подмигнул в Рождество через торрент | qTorrent

% Раздел Тема Автор DL S | L
T Фильмы (мультфильмы) cо спонсором показа (Новинки AVI/MKV) [ 1.37 GB ] Бог подмигнул в Рождество / A Godwink Christmas [2018 HDTVRip] MVO ["Синема УС"] bober100 Скачать
1 | 0

28-11-2019 20:33  

Отключить всю рекламу на сайте

    Дорогой пользователь! Огромная просьба, поблагодарите релизера, оцените раздачу и оставьте свои комментарий, если Вы скачали Бог подмигнул в Рождество через торрент бесплатно! Внесите свою лепту в развитие PiratBit!
    Комментировать посты могут только пользователи прошедшие не сложную регистрацию
    Показать сообщения:    

    Бог подмигнул в Рождество через торрент
    Скачать бесплатно Бог подмигнул в Рождество
    Бог подмигнул в Рождество скачать торрент
    Бог подмигнул в Рождество смотреть онлайн
    Cкачать фильм Бог подмигнул в Рождество бесплатно
    Бог подмигнул в Рождество скачать торрент в хорошем качестве
    Бог подмигнул в Рождество смотреть онлайн бесплатно в хорошем качестве


    Вы не можете начинать темы
    Вы не можете отвечать на сообщения
    Вы не можете редактировать свои сообщения
    Вы не можете удалять свои сообщения
    Вы не можете голосовать в опросах
    Вы не можете прикреплять файлы к сообщениям
    Вы можете скачивать файлы