Доктор Стрэндж

Лицензия

Добыча

Дубляж

Дом дракона

1 сезон

Тор

Дубляж

В эфире

Дубляж

Там, где раки поют

MVO

Властелин колец

1 сезон

Deluxe

pack

Рекомендуем

30

Пиратка

ВАЖНО

ВАЖНО

Ghostwire

Пиратка

jed

RePack

nioh2

RePack

RDR2

RePack

NEED FOR SPEED™ PAYBACK

RePack

скачать торрент

Кинопоиск HD

Острые козырьки 6 сезон

6 сезон

FAR CRY 6

RePack

скачать торрент

Лицензия

скачать торрент

MVO

1

1 сезон

скачать торрент

1 сезон

скачать торрент

Лицензия

  

Побег (Егор Кончаловский) [2005, Триллер, драма, криминал, DVD9]

Смотреть онлайн | Скачать   

05-12-2018 01:30 Побег Скачать торрент  

ПобегГод выпуска: 2005
Страна: Россия
Жанр: Триллер, драма, криминал
Продолжительность: 01:57:08
Перевод: Не требуется

Режиссер: Егор Кончаловский

rating

В ролях:

Евгений Миронов, Алексей Серебряков, Андрей Смоляков, Виктория Толстоганова, Сергей Габриэлян, Александр Мохов, Юрий Беляев, Любовь Толкалина, Сергей Астахов, Александр Новин.

Описание:

Еще вчера у Евгения Ветрова была другая жизнь. У него были деньги, безупречная репутация, уважение коллег и самое главное — любовь. И как оказалось, у него были враги. В день подписания важнейшего контракта с американскими инвесторами кто-то зверски убивает жену Евгения.

Никаких свидетелей и неколько неопровержимых улик. Все против Ветрова. Быстрый суд и приговор: виновен. Ему остается только бежать. Ветров принимает решение вернуться в Москву, чтобы провести собственное расследование и отомстить

Качество: DVD9
Формат: MPEG 2

Видео: PAL, 16:9, [email protected], VBR, ~5874
Аудио#1: Русский (AC3, 6 ch, ~448 kbit/s),
Аудио#2: русский (DTS, 6 ch, ~1509 kbit/s)
скриншот  скриншот  скриншот  скриншот  

скриншот  скриншот  скриншот  скриншот  

Size: 7.53 Gb ( 7 892 010 KBytes ) - DVD-9
Enabled regions: 1, 2, 3, 4, 5, 6, 7, 8

General
Complete name : C:UsersUserDesktopPobeg.2005.DVD-9VTS_04_1.VOB
Format : MPEG-PS
File size : 1 024 MiB
Duration : 17 min 54 s
Overall bit rate mode : Variable
Overall bit rate : 7 991 kb/s

Video
ID : 224 (0xE0)
Format : MPEG Video
Format version : Version 2
Format profile : [email protected]
Format settings : CustomMatrix / BVOP
Format settings, BVOP : Yes
Format settings, Matrix : Custom
Format settings, GOP : M=3, N=15
Format settings, picture st : Frame
Duration : 17 min 54 s
Bit rate mode : Variable
Bit rate : 5 874 kb/s
Maximum bit rate : 8 000 kb/s
Width : 720 pixels
Height : 576 pixels
Display aspect ratio : 16:9
Frame rate : 25.000 FPS
Standard : PAL
Color space : YUV
Chroma subsampling : 4:2:0
Bit depth : 8 bits
Scan type : Interlaced
Scan order : Top Field First
Compression mode : Lossy
Bits/(Pixel*Frame) : 0.567
Time code of first frame : 01:00:00:00
Time code source : Group of pictures header
GOP, Open/Closed : Closed
Stream size : 753 MiB (74%)

Audio #1
ID : 189 (0xBD)-128 (0x80)
Format : AC-3
Format/Info : Audio Coding 3
Commercial name : Dolby Digital
Muxing mode : DVD-Video
Duration : 17 min 54 s
Bit rate mode : Constant
Bit rate : 448 kb/s
Channel(s) : 6 channels
Channel layout : L R C LFE Ls Rs
Sampling rate : 48.0 kHz
Frame rate : 31.250 FPS (1536 SPF)
Bit depth : 16 bits
Compression mode : Lossy
Stream size : 57.4 MiB (6%)
Service kind : Complete Main

Audio #2
ID : 189 (0xBD)-137 (0x89)
Format : DTS
Format/Info : Digital Theater Systems
Muxing mode : DVD-Video
Duration : 17 min 54 s
Bit rate mode : Constant
Bit rate : 1 510 kb/s
Channel(s) : 6 channels
Channel layout : C L R Ls Rs LFE
Sampling rate : 48.0 kHz
Frame rate : 93.750 FPS (512 SPF)
Bit depth : 24 bits
Compression mode : Lossy
Stream size : 193 MiB (19%)




Скачать
Чтобы иметь возможность скачивать с Торрент Трекера, нужно Зарегистрироваться

Как скачивать  ·  Рейтинг и ограничения

28-11-2019 20:33  


Отключить вcю реклaмy на сайте, в т.ч. и в плеере онлайн просмотра!

    Дорогой пользователь! Огромная просьба, поблагодарите релизера, оцените раздачу и оставьте свои комментарий, если Вы скачали Побег через торрент бесплатно!!
    Комментировать посты могут только пользователи прошедшие не сложную регистрацию
    Показать сообщения:    


    Побег через торрент
    Скачать бесплатно Побег
    Побег скачать торрент
    Побег смотреть онлайн
    Cкачать фильм Побег бесплатно
    Побег скачать торрент в хорошем качестве
    Побег смотреть онлайн бесплатно в хорошем качестве
    Вы не можете начинать темы
    Вы не можете отвечать на сообщения
    Вы не можете редактировать свои сообщения
    Вы не можете удалять свои сообщения
    Вы не можете голосовать в опросах
    Вы не можете прикреплять файлы к сообщениям
    Вы не можете скачивать файлы
    Побег [2005, Триллер, драма, криминал, DVD9] смотреть онлайн, скачать торрент picoco.icu