Ссылка на приватное зеркало всего за 1$. Внимание количество ограничено!!!

OK

1+1

iTunes

мы

OK

1

WEB-DLRip

Джокер

Пифагор

Ведьмак / The Witcher сериал

Лицензия

ПШазам

ОК

Оно 2

iTunes

30
pack

Вам бонус

ВАЖНО

!!Акция!!

Alien_RageХит недели

RePack

Resident Evil 21

ИГРА 18+

pack

RePack

jed

RePack

fifa19

RePack

Assassins Creed: Odyssey

RePack

NEED FOR SPEED™ PAYBACK

4 сезон

9 сезон

Бесстыжие 9 сезон

Все сериалы

все сериалы на PB.wtf

RePack

FAR CRY 5
  

Отель «Артемида» / Hotel Artemis (Дрю Пирс) [2018 г., боевик, триллер, криминал, UHD BDRemux 2160p] [GER Tranfer] DUB (rus, ukr) pb.wtf

Отель «Артемида» через торрент pb.wtf

Размер: 39.02 GB | Добавлен: 1 год 1 мес. назад | Торрент скачан:24 раза
Скачать  

05-12-2018 05:36 Отель «Артемида» Скачать торрент  

Отель «Артемида» / Hotel Artemis«Никакого оружия. Никаких копов. Никаких убийств других пациентов» Год выпуска: 2018
Страна: Великобритания, США
Жанр: боевик, триллер, криминал
Продолжительность: 01:33:45
Перевод: Дублированный | iTunes
Субтитры: Английские
Режиссер: Дрю Пирс
В ролях:
Джоди Фостер, Стерлинг К. Браун, София Бутелла, Джефф Голдблюм, Брайан Тайри Генри, Дженни Слейт, Закари Куинто, Чарли Дэй, Дэйв Батиста, Кеннет Чои
Описание:
В Лос-Анджелесе недалекого будущего каждый уважающий себя преступник отправляется за медицинской помощью к суровой Медсестре, которая содержит отель «Артемида». Здесь члены особого клуба могут получить лечение и отдохнуть. Но парочка новых клиентов случайно приводит за собой местного криминального босса, желающего получить заветный предмет, похищенный в результате ограбления. Постояльцам отеля придется немало попотеть, ведь внутри строго-настрого запрещено любое оружие.
rating
Качество: UHD BDRemux 2160p
Формат: MKV
Видео: HEVC HDR, 3840x2160 (16:9), 23.976 fps, 56.5 Mb/s (0.284 bit/pixel)
Аудио #1: AC-3, 48.0 kHz, 6 ch, 384 kb/s, CBR (Russian) | Дублированный, iTunes
Аудио #2: AC-3, 48.0 kHz, 2 ch, 192 kb/s, CBR (Ukrainian) | Дублированный, Line IN
Аудио #3: DTS MA / Core, 48.0 kHz, 6 ch, 1 830 kb/s / 1 509 kb/s, VBR / CBR (English) | Original
Аудио #4: AC-3, 48.0 kHz, 2 ch, 224 kb/s, CBR (English) | Commentary
Навигация по главам: Есть
Общее
Уникальный идентификатор : 187196129007445744242055984790951950289 (0x8CD4A9BC85DE903113B524DF9C0BF7D1)
Полное имя : Hotel.Artemis.2018.2160p.UHD.BDRemux.HDR.HEVC.IVA(RUS.UKR.ENG).ExKinoRay.mkv
Формат : Matroska
Версия формата : Version 4
Размер файла : 39,0 Гбайт
Продолжительность : 1 ч. 34 м.
Режим общего битрейта : Переменный
Общий поток : 59,1 Мбит/сек
Название фильма : Отель «Артемида» / Hotel Artemis ( 2018 ) UHD BDRemux | HDR, 4K | IVA(RUS.UKR.ENG) | ExKinoRay
Дата кодирования : UTC 2018-12-05 00:50:25
Программа кодирования : mkvmerge v29.0.0 ('Like It Or Not') 64-bit
Библиотека кодирования : libebml v1.3.6 + libmatroska v1.4.9
Обложка : Yes
Attachments : cover

Видео
Идентификатор : 1
Формат : HEVC
Формат/Информация : High Efficiency Video Coding
Коммерческое название : HDR10
Профиль формата : Main 10@L5.1@High
Идентификатор кодека : V_MPEGH/ISO/HEVC
Продолжительность : 1 ч. 34 м.
Битрейт : 56,5 Мбит/сек
Ширина : 3840 пикселей
Высота : 2160 пикселей
Соотношение сторон : 16:9
Режим частоты кадров : Постоянный
Частота кадров : 23,976 (24000/1001) кадра/сек
Цветовое пространство : YUV
Субдискретизация насыщенности : 4:2:0 (Type 2)
Битовая глубина : 10 бит
Бит/(Пиксели*Кадры) : 0.284
Размер потока : 37,3 Гбайт (96%)
Заголовок : Hotel.Artemis.2018.HEVC.HDR.GER.Transfer
Язык : English
Default : Да
Forced : Нет
Цветовой диапазон : Limited
Основные цвета : BT.2020
Характеристики трансфера : PQ
Коэффициенты матрицы : BT.2020 non-constant
MasteringDisplay_ColorPrimaries : BT.2020
MasteringDisplay_Luminance : min: 0.0050 cd/m2, max: 1000 cd/m2
MaxCLL : 624 cd/m2
MaxFALL : 595 cd/m2

Аудио #1
Идентификатор : 2
Формат : AC-3
Формат/Информация : Audio Coding 3
Коммерческое название : Dolby Digital
Идентификатор кодека : A_AC3
Продолжительность : 1 ч. 34 м.
Вид битрейта : Постоянный
Битрейт : 384 Кбит/сек
Каналы : 6 каналов
Channel layout : L R C LFE Ls Rs
Частота : 48,0 КГц
Частота кадров : 31,250 кадров/сек (1536 SPF)
Битовая глубина : 16 бит
Метод сжатия : С потерями
Размер потока : 260 Мбайт (1%)
Заголовок : Дублированный, iTunes
Язык : Russian
ServiceKind/String : Complete Main
Default : Да
Forced : Нет

Аудио #2
Идентификатор : 3
Формат : AC-3
Формат/Информация : Audio Coding 3
Коммерческое название : Dolby Digital
Идентификатор кодека : A_AC3
Продолжительность : 1 ч. 34 м.
Вид битрейта : Постоянный
Битрейт : 192 Кбит/сек
Каналы : 2 канала
Channel layout : L R
Частота : 48,0 КГц
Частота кадров : 31,250 кадров/сек (1536 SPF)
Битовая глубина : 16 бит
Метод сжатия : С потерями
Размер потока : 129 Мбайт (0%)
Заголовок : Дублированный, Line IN
Язык : Ukrainian
ServiceKind/String : Complete Main
Default : Нет
Forced : Нет

Аудио #3
Идентификатор : 4
Формат : DTS XLL
Формат/Информация : Digital Theater Systems
Коммерческое название : DTS-HD Master Audio
Идентификатор кодека : A_DTS
Продолжительность : 1 ч. 34 м.
Вид битрейта : Переменный
Битрейт : 1830 Кбит/сек
Каналы : 6 каналов
Channel layout : C L R Ls Rs LFE
Частота : 48,0 КГц
Частота кадров : 93,750 кадра/сек (512 SPF)
Битовая глубина : 16 бит
Метод сжатия : Без потерь
Размер потока : 1,21 Гбайт (3%)
Заголовок : Original
Язык : English
Default : Нет
Forced : Нет

Аудио #4
Идентификатор : 5
Формат : AC-3
Формат/Информация : Audio Coding 3
Коммерческое название : Dolby Digital
Идентификатор кодека : A_AC3
Продолжительность : 1 ч. 34 м.
Вид битрейта : Постоянный
Битрейт : 224 Кбит/сек
Каналы : 2 канала
Channel layout : L R
Частота : 48,0 КГц
Частота кадров : 31,250 кадров/сек (1536 SPF)
Битовая глубина : 16 бит
Метод сжатия : С потерями
Размер потока : 151 Мбайт (0%)
Заголовок : Commentary
Язык : English
ServiceKind/String : Complete Main
Default : Нет
Forced : Нет

Текст #1
Идентификатор : 6
Формат : UTF-8
Идентификатор кодека : S_TEXT/UTF8
Идентификатор кодека/Информация : UTF-8 Plain Text
Продолжительность : 4 с. 630 мс.
Битрейт : 82 бит/сек
ElementCount : 1
Размер потока : 48,0 байт (0%)
Язык : Russian
Default : Да
Forced : Да

Текст #2
Идентификатор : 7
Формат : UTF-8
Идентификатор кодека : S_TEXT/UTF8
Идентификатор кодека/Информация : UTF-8 Plain Text
Продолжительность : 1 ч. 29 м.
Битрейт : 69 бит/сек
ElementCount : 1454
Размер потока : 45,8 Кбайт (0%)
Заголовок : SDH
Язык : English
Default : Нет
Forced : Нет

Меню
00:00:00.000 : :Глава 01
00:07:30.199 : :Глава 02
00:16:39.498 : :Глава 03
00:24:50.197 : :Глава 04
00:33:24.669 : :Глава 05
00:40:32.012 : :Глава 06
00:47:16.083 : :Глава 07
00:54:59.838 : :Глава 08
01:02:53.436 : :Глава 09
01:13:02.544 : :Глава 10
01:18:18.944 : :Глава 11
01:25:53.982 : :Глава 12
pb.wtf



Скачать Отель «Артемида» через торрент https://b.radikal.ru/b22/1810/90/a0f2d39d5fe1.jpg Скачать фильм Отель «Артемида» через торрент бесплантно в хорошем качестве Описание: В Лос-Анджелесе недалекого будущего каждый уважающий себя преступник отправляется за медицинской помощью к суровой Медсестре, ... 10 10 1
Info! Золотая раздача, скачанное не засчитывается.
Торрент: Зарегистрирован [2018-12-05 05:36] · скачан: 24 раз
Статус: √ проверено
Размер: 39.02 GB
Как cкачать? Как скачать Отель «Артемида» через торрент | qTorrent

% Раздел Тема Автор DL S | L
Ultra HD (UHD: 2K, 4K, 8K) — видео сверхвысокой чёткости [ 14.59 GB ] Отель «Артемида» / Hotel Artemis [2018 UHD BDRip 2160p] DUB sheker187 Скачать
1 | 0
Фильмы 2018 [DVDrip, WEB-DLRip, HDrip] (DUB, MVO) [ 1.42 GB ] Отель «Артемида» / Hotel Artemis [2018 BDRip] - Twi7ter Скачать
8 | 0
Фильмы [HD 720p, 1080p] (Хороший звук DUB, MVO) [ 9.75 GB ] Отель «Артемида» / Hotel Artemis [2018 BDRip 1080p] bober100 Скачать
4 | 0
Ultra HD (UHD: 2K, 4K, 8K) — видео сверхвысокой чёткости [ 26.15 GB ] Отель «Артемида» / Hotel Artemis [2018 UHD BDRip 2160p] [SDR] bober100 Скачать
1 | 0
Фильмы [HD 720p, 1080p] (Хороший звук DUB, MVO) [ 3.81 GB ] Отель «Артемида» / Hotel Artemis [2018 BDRip 1080p HEVC ()] Мичман37 Скачать
2 | 0
Ultra HD (UHD: 2K, 4K, 8K) — видео сверхвысокой чёткости [ 50.07 GB ] Отель «Артемида» / Hotel Artemis [2018 UHD Blu-Ray 2160p] sheker187 Скачать
1 | 0
Фильмы 2018 [DVDrip, WEB-DLRip, HDrip] (DUB, MVO) [ 745 MB ] Отель «Артемида» / Hotel Artemis [2018 BDRip] bober100 Скачать
2 | 0

28-11-2019 20:33  

Отключить всю рекламу на сайте

    Дорогой пользователь! Огромная просьба, поблагодарите релизера, оцените раздачу и оставьте свои комментарий, если Вы скачали Отель «Артемида» через торрент бесплатно! Внесите свою лепту в развитие PiratBit!
    Комментировать посты могут только пользователи прошедшие не сложную регистрацию
    Показать сообщения:    

    Отель «Артемида» через торрент
    Скачать бесплатно Отель «Артемида»
    Отель «Артемида» скачать торрент
    Отель «Артемида» смотреть онлайн
    Cкачать фильм Отель «Артемида» бесплатно
    Отель «Артемида» скачать торрент в хорошем качестве
    Отель «Артемида» смотреть онлайн бесплатно в хорошем качестве


    Вы не можете начинать темы
    Вы не можете отвечать на сообщения
    Вы не можете редактировать свои сообщения
    Вы не можете удалять свои сообщения
    Вы не можете голосовать в опросах
    Вы не можете прикреплять файлы к сообщениям
    Вы можете скачивать файлы