Мега распродажа FORZA HORIZON 4 ULTIMATE+ВСЕ DLC+ОНЛАЙН всего за 499р. 349 руб. (супер цена). Внимание количество ограничено!!!

Лицензия

30

iTunes

мы

iTunes

1

1 сезон

Чернобыль

1 сезон

Ральф против интернета

MVO

Покемон. Детектив Пикачу

8 сезон

Игра престолов

iTunes

1+1

ИГРА 18+

pack

ВАЖНО

!!Акция!!

Alien_RageХит недели

RePack

Resident Evil 21
pack

RePack

Metro:Exodus

!!Акция!!

Alien_Rage

RePack

fifa19

RePack

Assassins Creed: Odyssey

RePack

NEED FOR SPEED™ PAYBACK

3 сезон

9 сезон

Бесстыжие 9 сезон

Все сериалы

все сериалы на PB.wtf

RePack

FAR CRY 5
Ребята, катастрофически не хватает 2730р. для оплаты серверов за МАЙ (всвязи с блокировками трафик упал в 3 раза), 1-2р., выручайте.
  

Летящие сквозь ночь / Nightflyers / Сезон: 1 / Серии: 1-10 из 10 (Эндрю МакКарти, Майк Кэхилл, Мэгги Кили) [2018, ужасы, фантастика, WEB-DL 1080p] MVO (rus, ukr) [LostFilm] pb.wtf

Летящие сквозь ночь через торрент pb.wtf

Размер: 13.24 GB | Добавлен: 5 мес. 28 д. назад | Торрент скачан:35 раз
Скачать  

05-12-2018 07:35 Летящие сквозь ночь Скачать торрент  

Летящие сквозь ночь / Nightflyers Год выпуска: 2018
Страна: США
Жанр: ужасы, фантастика
Продолжительность: ~ 00:50:00
Перевод: Профессиональный многоголосый | LostFilm
Субтитры: Русские, английские

Режиссер: Эндрю МакКарти, Майк Кэхилл, Мэгги Кили

rating

В ролях:

Джоди Смит, Гретхен Мол, Оуэн Мэкен, Дэвид Аджала, Энгус Сэмпсон, Сэм Страйк, Майя Эшет, Брайан Ф. О Бирн, Филлип Риз, Gwynne McElveen

Описание:

История о группе исследователей, которые отправляются на далекую планету, чтобы найти загадочное существо, но в пути сталкиваются с другими опасностями.

Качество: WEB-DL 1080p
Формат: MKV

Видео: 1920x1080 at 23.976 fps, AVC, ~3600 kbps avg
Аудио#1: Russian: 48 kHz, AC3, 2 ch, ~384 kbps avg |Многоголосый закадровый, LostFilm|
Аудио#2: Ukrainian: 48 kHz, AC3, 6 ch, ~384 kbps avg |Многоголосый закадровый, DniproFilm|
Аудио#3: English: 48 kHz, AC3, 6 ch, ~384 kbps avg
скриншот  скриншот  скриншот  

Общее
Уникальный идентификатор : 231374266267431144628227265997084355478 (0xAE1110121F0505BAB8B0DA46C40CEB96)
Полное имя : D:\Nightflyers.S01.1080p.WEB-DL\Nightflyers.S01E01.All.That.We.Left.Behind.1080p.AMZN.WEB-DL.ИВ.mkv
Формат : Matroska
Версия формата : Version 2
Размер файла : 1,98 Гбайт
Продолжительность : 58 м. 20 с.
Общий поток : 4864 Кбит/сек
Название фильма : 1. Всё, что осталось позади
Дата кодирования : UTC 2018-12-08 18:42:13
Программа кодирования : mkvmerge v7.8.0 ('River Man') 32bit built on Apr 3 2015 12:11:22
Библиотека кодирования : libebml v1.3.1 + libmatroska v1.4.2
Обложка : Yes
Attachments : cover.jpg

Видео
Идентификатор : 1
Формат : AVC
Формат/Информация : Advanced Video Codec
Профиль формата : High@L4
Параметр CABAC формата : Да
Параметр RefFrames формата : 4 кадра
Идентификатор кодека : V_MPEG4/ISO/AVC
Продолжительность : 58 м. 20 с.
Битрейт : 3615 Кбит/сек
Ширина : 1920 пикселей
Высота : 1080 пикселей
Соотношение сторон : 16:9
Режим частоты кадров : Постоянный
Частота кадров : 23,976 (24000/1001) кадра/сек
Цветовое пространство : YUV
Субдискретизация насыщенности : 4:2:0
Битовая глубина : 8 бит
Тип развёртки : Прогрессивная
Бит/(Пиксели*Кадры) : 0.073
Размер потока : 1,47 Гбайт (74%)
Заголовок : Nightflyers.S01E01.All.That.We.Left.Behind.1080p.AMZN.WEB-DL.ИВ
Язык : English
Default : Да
Forced : Нет
Цветовой диапазон : Limited
Основные цвета : BT.709
Характеристики трансфера : BT.709
Коэффициенты матрицы : BT.709

Аудио #1
Идентификатор : 2
Формат : AC-3
Формат/Информация : Audio Coding 3
Расширение режима : CM (complete main)
Параметр Endianness формата : Big
Идентификатор кодека : A_AC3
Продолжительность : 58 м. 20 с.
Вид битрейта : Постоянный
Битрейт : 384 Кбит/сек
Каналы : 6 каналов
Расположение каналов : Front: L C R, Side: L R, LFE
Частота : 48,0 КГц
Частота кадров : 31,250 кадров/сек (1536 spf)
Метод сжатия : С потерями
Размер потока : 160 Мбайт (8%)
Заголовок : LostFilm
Язык : Russian
Default : Да
Forced : Нет

Аудио #2
Идентификатор : 3
Формат : AC-3
Формат/Информация : Audio Coding 3
Расширение режима : CM (complete main)
Параметр Endianness формата : Big
Идентификатор кодека : A_AC3
Продолжительность : 58 м. 20 с.
Вид битрейта : Постоянный
Битрейт : 384 Кбит/сек
Каналы : 6 каналов
Расположение каналов : Front: L C R, Side: L R, LFE
Частота : 48,0 КГц
Частота кадров : 31,250 кадров/сек (1536 spf)
Метод сжатия : С потерями
Задержка видео : 1 с. 0 мс.
Размер потока : 160 Мбайт (8%)
Язык : Ukrainian
Default : Нет
Forced : Нет

Аудио #3
Идентификатор : 4
Формат : AC-3
Формат/Информация : Audio Coding 3
Расширение режима : CM (complete main)
Параметр Endianness формата : Big
Идентификатор кодека : A_AC3
Продолжительность : 58 м. 20 с.
Вид битрейта : Постоянный
Битрейт : 384 Кбит/сек
Каналы : 6 каналов
Расположение каналов : Front: L C R, Side: L R, LFE
Частота : 48,0 КГц
Частота кадров : 31,250 кадров/сек (1536 spf)
Метод сжатия : С потерями
Размер потока : 160 Мбайт (8%)
Язык : English
Default : Нет
Forced : Нет

Текст #1
Идентификатор : 5
Формат : UTF-8
Идентификатор кодека : S_TEXT/UTF8
Идентификатор кодека/Информация : UTF-8 Plain Text
Язык : Russian
Default : Нет
Forced : Нет

Текст #2
Идентификатор : 6
Формат : UTF-8
Идентификатор кодека : S_TEXT/UTF8
Идентификатор кодека/Информация : UTF-8 Plain Text
Заголовок : SDH
Язык : English
Default : Нет
Forced : Нет

Когда раздача ведётся путём добавления новых серий, при каждом добавлении создётся новый торрент. Чтобы начать докачку новой серии, пользователям необходимо сделать следующее:
(1) остановить скачивание,
(2) удалить старый торрент у себя из клиента (старые серии удалять не надо),
(3) скачать новый торрент и запустить его у себя в клиенте вместо старого, при этом указать клиенту путь в старую папку, куда и должно происходить скачивание новых серий.
Ваш клиент при этом должен произвести хеширование (проверку) старой папки (если не производит сам - помогите ему сделать это), и будет докачивать только те серии, которых у вас ещё нет. Старые серии при этом не удаляются, а продолжают раздаваться!
Eсли вы уже удалили старые серии, то предотвратить повторную закачку старых серий можно, отжав галочку в соответствующих местах при запуске нового торрента. По возможности, желательно не удалять старые серии как можно дольше, чтобы релизер не столько продолжал раздавать старые серии, а смог сконцентрироваться на новых.
Закрыть
pb.wtf



Скачать Летящие сквозь ночь через торрент http://c.radikal.ru/c10/1812/8e/72472342a95a.jpg Скачать фильм Летящие сквозь ночь через торрент бесплантно в хорошем качестве Описание: История о группе исследователей, которые отправляются на далекую планету, чтобы найти загадочное существо, но в пути сталкиваются ... 8 10 4
Торрент: Зарегистрирован [2018-12-29 21:56] · скачан: 35 раз
Статус: √ проверено
Размер: 13.24 GB
Как cкачать? Как скачать Летящие сквозь ночь через торрент | qTorrent

% Раздел Тема Автор DL S | L
Зарубежные сериалы [ 12.76 GB ] Летящие сквозь ночь / Nightflyers / Сезон: 1 / Серии: 1-10 из 10 [2018 WEBRip 1080p] MVO [NewStudio] bober100 Скачать
1 | 0
Зарубежные сериалы [ 5.47 GB ] Летящие сквозь ночь / Nightflyers / Сезон: 1 / Серии: 1-10 из 10 [2018 WEBRip] MVO [KosharaSerials] bober100 Скачать
1 | 0
Зарубежные сериалы [ 12.71 GB ] Летящие сквозь ночь / Nightflyers / Сезон: 1 / Серия: 1-10 из 10 [2018 WEBRip 720p] [DVO] killermax2013 Скачать
1 | 0
Зарубежные сериалы [ 14.15 GB ] Летящие сквозь ночь / Nightflyers / Сезон 1 / Серии 1-10 из 10 [2018 WEB-DL 1080p] MVO [Jaskier] bober100 Скачать
1 | 0
Зарубежные сериалы [ 5.75 GB ] Летящие сквозь ночь / Nightflyers / Сезон: 1 / Серии: 1-10 из 10 [2018 WEB-DLRip] MVO [LostFilm] bober100 Скачать
1 | 0
Зарубежные сериалы [ 5.31 GB ] Летящие сквозь ночь / Nightflyers / Manifest / Сезон: 1 / Серии: 1-10 из 10 [2018 WEBRip] [MVO] killermax2013 Скачать
2 | 0
Зарубежные сериалы [ 5.19 GB ] Летящие сквозь ночь / Nightflyers / Сезон: 1 / Серия: 1-10 из 10 [2018 WEB-DLRip] [MVO] killermax2013 Скачать
1 | 0


>> Регистрируемся здесь <<






Отзывы и комментарии о схеме читаем и пишем здесь: ---> Отзывы и комментарии о схеме

Новые благодарочки в телеграм довольных пользователей:
скриншот   скриншот   скриншот   скриншот   скриншот
    Дорогой пользователь! Огромная просьба, поблагодарите релизера, оцените раздачу и оставьте свои комментарий, если Вы скачали Летящие сквозь ночь через торрент бесплатно! Внесите свою лепту в развитие PiratBit!
    Комментировать посты могут только пользователи прошедшие не сложную регистрацию
    Показать сообщения:    

    Летящие сквозь ночь через торрент
    Скачать бесплатно Летящие сквозь ночь
    Летящие сквозь ночь скачать торрент
    Летящие сквозь ночь смотреть онлайн
    Cкачать фильм Летящие сквозь ночь бесплатно
    Летящие сквозь ночь скачать торрент в хорошем качестве
    Летящие сквозь ночь смотреть онлайн бесплатно в хорошем качестве


    Вы не можете начинать темы
    Вы не можете отвечать на сообщения
    Вы не можете редактировать свои сообщения
    Вы не можете удалять свои сообщения
    Вы не можете голосовать в опросах
    Вы не можете прикреплять файлы к сообщениям
    Вы можете скачивать файлы