Ссылка на приватное зеркало всего за 1$. Внимание количество ограничено!!!

iTunes

iTunes

iTunes

1

iTunes

iTunes

iTunes

WEBRip

iTunes

30
pack

$ от Little Big

ВАЖНО

!!Акция!!

Alien_RageХит недели

RePack

Resident Evil 21

ИГРА 18+

pack

RePack

jed

!!Акция!!

Alien_Rage

RePack

fifa19

RePack

Assassins Creed: Odyssey

RePack

NEED FOR SPEED™ PAYBACK

4 сезон

9 сезон

Бесстыжие 9 сезон

Все сериалы

все сериалы на PB.wtf

RePack

FAR CRY 5
  

Пони и Человек-Птица / Puluboin ja Ponin leffa (Мари Рантасила) [2018, комедия, BDRip 720p] MVO ["Синема УС"] pb.wtf

Пони и Человек-Птица через торрент pb.wtf

Размер: 3.59 GB | Добавлен: 1 год 8 мес. назад | Торрент скачан:3 раза
Скачать  

05-12-2018 08:06 Пони и Человек-Птица Скачать торрент  

Пони и Человек-Птица / Puluboin ja Ponin leffaГод выпуска: 2018
Страна: Финляндия
Жанр: комедия
Продолжительность: 01:12:10
Перевод: Любительский (многоголосый) | "Синема УС"
Субтитры: отсутствуют

Режиссер: Мари Рантасила

rating

В ролях:

Оливия Айнали, Аннамайя Туокко, Туулия Элоранта, Сантту Карвонен, Юха-Пекка Миккола, Сеппо Халттунен, Винсент Киннунен, Яана Песонен, Аапо Пуусти

Описание:

Пони - упрямая семилетняя девочка, которая совсем не хочет учиться в школе. К счастью, у нее появляется воображаемый друг, Человек-Птица, который знает способы решения любых проблем. Его весёлые советы и хитроумные планы помогают девочке избежать скучную реальность. Может Пони волшебным образом сможет превратиться в настоящую лошадь, чтобы не идти в школу, а целыми днями скакать на лугу? Или же она может сразу стать президентом и придумывать свои собственные правила, а не сидеть много лет за школьной партой? Ведь главное не ходить в школу. Или может быть она....

Качество: BDRip 720p
Формат: MKV

Видео: h.264, 6 677 Кбит/с, 1280x720
Аудио#1: русский (AC3, 2 ch, 448 Кбит/с)
скриншот  скриншот  скриншот  

Общее
Уникальный идентификатор : 253918524442182335989005356505214460545 (0xBF06EDD0B3955081A191FFF2953FA281)
Полное имя : D:\Pony.And.Birdboy.2018.P.BDRip.72Op.mkv
Формат : Matroska
Версия формата : Version 2
Размер файла : 3,59 Гбайт
Продолжительность : 1 ч. 12 м.
Режим общего битрейта : Переменный
Общий поток : 7127 Кбит/сек
Дата кодирования : UTC 2018-12-04 12:44:28
Программа кодирования : mkvmerge v8.3.0 ('Over the Horizon') 64bit
Библиотека кодирования : libebml v1.3.1 + libmatroska v1.4.2

Видео
Идентификатор : 1
Формат : AVC
Формат/Информация : Advanced Video Codec
Профиль формата : High@L4.1
Параметр CABAC формата : Да
Параметр RefFrames формата : 4 кадра
Идентификатор кодека : V_MPEG4/ISO/AVC
Продолжительность : 1 ч. 12 м.
Вид битрейта : Переменный
Битрейт : 6677 Кбит/сек
Максимальный битрейт : 7500 Кбит/сек
Ширина : 1280 пикселей
Высота : 720 пикселей
Соотношение сторон : 16:9
Режим частоты кадров : Постоянный
Частота кадров : 23,976 (24000/1001) кадра/сек
Стандарт вещания : Component
Цветовое пространство : YUV
Субдискретизация насыщенности : 4:2:0
Битовая глубина : 8 бит
Тип развёртки : Прогрессивная
Бит/(Пиксели*Кадры) : 0.296
Размер потока : 3,30 Гбайт (92%)
Default : Да
Forced : Нет
Цветовой диапазон : Limited
Основные цвета : BT.709
Характеристики трансфера : BT.709
Коэффициенты матрицы : BT.709

Аудио
Идентификатор : 2
Формат : AC-3
Формат/Информация : Audio Coding 3
Расширение режима : CM (complete main)
Параметр Endianness формата : Big
Идентификатор кодека : A_AC3
Продолжительность : 1 ч. 12 м.
Вид битрейта : Постоянный
Битрейт : 448 Кбит/сек
Каналы : 2 канала
Расположение каналов : Front: L R
Частота : 48,0 КГц
Частота кадров : 31,250 кадров/сек (1536 spf)
Метод сжатия : С потерями
Размер потока : 231 Мбайт (6%)
Default : Да
Forced : Нет

pb.wtf



Скачать Пони и Человек-Птица через торрент https://c.radikal.ru/c31/1812/3f/e2a778c57464.jpg Скачать фильм Пони и Человек-Птица через торрент бесплантно в хорошем качестве Описание: Пони - упрямая семилетняя девочка, которая совсем не хочет учиться в школе. К счастью, у нее появляется воображаемый друг, ... 10 10 2
Торрент: Зарегистрирован [2018-12-05 08:06] · скачан: 3 раз
Статус: T временная
Размер: 3.59 GB
Как cкачать? Как скачать Пони и Человек-Птица через торрент | qTorrent

% Раздел Тема Автор DL S | L
T Фильмы (мультфильмы) cо спонсором показа (Новинки AVI/MKV) [ 1.37 GB ] Пони и Человек-Птица / Puluboin ja Ponin leffa [2018 HDRip] MVO ["Синема УС"] bober100 Скачать
1 | 0

28-11-2019 20:33  

Отключить всю рекламу на сайте

05-12-2018 10:13 Пони и Человек-Птица Скачать торрент  

Пони - упрямая семилетняя девочка,нет! пони это подвид домашней лошадиpb.wtf



    Дорогой пользователь! Огромная просьба, поблагодарите релизера, оцените раздачу и оставьте свои комментарий, если Вы скачали Пони и Человек-Птица через торрент бесплатно! Внесите свою лепту в развитие PiratBit!
    Комментировать посты могут только пользователи прошедшие не сложную регистрацию
    Показать сообщения:    

    Пони и Человек-Птица через торрент
    Скачать бесплатно Пони и Человек-Птица
    Пони и Человек-Птица скачать торрент
    Пони и Человек-Птица смотреть онлайн
    Cкачать фильм Пони и Человек-Птица бесплатно
    Пони и Человек-Птица скачать торрент в хорошем качестве
    Пони и Человек-Птица смотреть онлайн бесплатно в хорошем качестве


    Вы не можете начинать темы
    Вы не можете отвечать на сообщения
    Вы не можете редактировать свои сообщения
    Вы не можете удалять свои сообщения
    Вы не можете голосовать в опросах
    Вы не можете прикреплять файлы к сообщениям
    Вы можете скачивать файлы