MEGA SALE -50% FORZA HORIZON 4 ULTIMATE+ВСЕ DLC+ОНЛАЙН всего за 599р. 299 руб. (супер цена). Внимание количество ограничено!!!

iTunes

1+1

iTunes

мы

iTunes

1

iTunes

Чернобыль

iTunes

Ральф против интернета

Лицензия

ПШазам

Лицензия

Игра престолов

Лицензия

30
pack

ВАЖНО

!!Акция!!

Alien_RageХит недели

RePack

Resident Evil 21

ИГРА 18+

pack

RePack

Metro:Exodus

!!Акция!!

Alien_Rage

RePack

fifa19

RePack

Assassins Creed: Odyssey

RePack

NEED FOR SPEED™ PAYBACK

3 сезон

9 сезон

Бесстыжие 9 сезон

Все сериалы

все сериалы на PB.wtf

RePack

FAR CRY 5
Ребята, катастрофически не хватает 7730р. для оплаты серверов за АВГУСТ (всвязи с блокировками трафик упал в 3 раза), 1-2р., выручайте.
  

Летящие сквозь ночь / Nightflyers / Сезон: 1 / Серии: 1-10 из 10 (Эндрю МакКарти, Майк Кэхилл, Мэгги Кили) [2018, ужасы, фантастика, WEB-DLRip] MVO [LostFilm] pb.wtf

Летящие сквозь ночь через торрент pb.wtf

Размер: 5.75 GB | Добавлен: 8 мес. назад | Торрент скачан:114 раз
Скачать  

05-12-2018 09:19 Летящие сквозь ночь Скачать торрент  

Летящие сквозь ночь / Nightflyers Год выпуска: 2018
Страна: США
Жанр: ужасы, фантастика
Продолжительность: ~ 00:50:00
Перевод: Профессиональный многоголосый | LostFilm
Субтитры: отсутствуют

Режиссер: Эндрю МакКарти, Майк Кэхилл, Мэгги Кили

rating

В ролях:

Джоди Смит, Гретхен Мол, Оуэн Мэкен, Дэвид Аджала, Энгус Сэмпсон, Сэм Страйк, Майя Эшет, Брайан Ф. О Бирн, Филлип Риз, Gwynne McElveen

Описание:

История о группе исследователей, которые отправляются на далекую планету, чтобы найти загадочное существо, но в пути сталкиваются с другими опасностями.

Качество: WEB-DLRip | чистый видеоряд |
Формат: AVI

Видео: 704x352, XviD ~1500 kbps avg, 0.22 bit/pixel
Аудио#1 Rus: 48 kHz, MPEG Layer 3, 2 ch, ~128.00 kbps avg
Аудио#2 Eng: 48 kHz, MPEG Layer 3, 2 ch, ~128.00 kbps avg
скриншот  скриншот  скриншот  скриншот  

Общее
Полное имя : D:\Nightflyers\Nightflyers.s01e01.LostFIlm.avi
Формат : AVI
Формат/Информация : Audio Video Interleave
Размер файла : 775 Мбайт
Продолжительность : 58 м. 20 с.
Общий поток : 1858 Кбит/сек
Программа кодирования : VirtualDubMod 1.5.10.2 (build 2540/release)
Библиотека кодирования : VirtualDubMod build 2540/release

Видео
Идентификатор : 0
Формат : MPEG-4 Visual
Профиль формата : Advanced Simple@L5
Параметр BVOP формата : 1
Параметр QPel формата : Нет
Параметр GMC формата : Без точки перехода
Параметр матрицы формата : Выборочная
Идентификатор кодека : XVID
Идентификатор кодека/Подсказка : XviD
Продолжительность : 58 м. 20 с.
Битрейт : 1588 Кбит/сек
Ширина : 704 пикселя
Высота : 352 пикселя
Соотношение сторон : 2,000
Частота кадров : 23,976 (23976/1000) кадра/сек
Цветовое пространство : YUV
Субдискретизация насыщенности : 4:2:0
Битовая глубина : 8 бит
Тип развёртки : Прогрессивная
Метод сжатия : С потерями
Бит/(Пиксели*Кадры) : 0.267
Размер потока : 662 Мбайт (85%)
Библиотека кодирования : XviD 73

Аудио #1
Идентификатор : 1
Формат : MPEG Audio
Версия формата : Version 1
Профиль формата : Layer 3
Режим : Joint stereo
Расширение режима : MS Stereo
Идентификатор кодека : 55
Идентификатор кодека/Подсказка : MP3
Продолжительность : 58 м. 19 с.
Вид битрейта : Постоянный
Битрейт : 128 Кбит/сек
Каналы : 2 канала
Частота : 48,0 КГц
Метод сжатия : С потерями
Размер потока : 53,4 Мбайт (7%)
Выравнивание : Разделение по промежуткам
Продолжительность промежутка : 42 мс. (1,00 видеокадр)
Время предзагрузки промежутка : 500 мс.

Аудио #2
Идентификатор : 2
Формат : MPEG Audio
Версия формата : Version 1
Профиль формата : Layer 3
Режим : Joint stereo
Расширение режима : MS Stereo
Идентификатор кодека : 55
Идентификатор кодека/Подсказка : MP3
Продолжительность : 58 м. 20 с.
Вид битрейта : Постоянный
Битрейт : 128 Кбит/сек
Каналы : 2 канала
Частота : 48,0 КГц
Метод сжатия : С потерями
Размер потока : 53,4 Мбайт (7%)
Выравнивание : Разделение по промежуткам
Продолжительность промежутка : 42 мс. (1,00 видеокадр)
Время предзагрузки промежутка : 500 мс.

Когда раздача ведётся путём добавления новых серий, при каждом добавлении создётся новый торрент. Чтобы начать докачку новой серии, пользователям необходимо сделать следующее:
(1) остановить скачивание,
(2) удалить старый торрент у себя из клиента (старые серии удалять не надо),
(3) скачать новый торрент и запустить его у себя в клиенте вместо старого, при этом указать клиенту путь в старую папку, куда и должно происходить скачивание новых серий.
Ваш клиент при этом должен произвести хеширование (проверку) старой папки (если не производит сам - помогите ему сделать это), и будет докачивать только те серии, которых у вас ещё нет. Старые серии при этом не удаляются, а продолжают раздаваться!
Eсли вы уже удалили старые серии, то предотвратить повторную закачку старых серий можно, отжав галочку в соответствующих местах при запуске нового торрента. По возможности, желательно не удалять старые серии как можно дольше, чтобы релизер не столько продолжал раздавать старые серии, а смог сконцентрироваться на новых.
Закрыть
pb.wtf



Скачать Летящие сквозь ночь через торрент http://c.radikal.ru/c10/1812/8e/72472342a95a.jpg Скачать фильм Летящие сквозь ночь через торрент бесплантно в хорошем качестве Описание: История о группе исследователей, которые отправляются на далекую планету, чтобы найти загадочное существо, но в пути сталкиваются ... 10 10 2
Торрент: Зарегистрирован [2018-12-30 14:38] · скачан: 114 раз
Статус: √ проверено
Размер: 5.75 GB
Как cкачать? Как скачать Летящие сквозь ночь через торрент | qTorrent

% Раздел Тема Автор DL S | L
Зарубежные сериалы [ 12.76 GB ] Летящие сквозь ночь / Nightflyers / Сезон: 1 / Серии: 1-10 из 10 [2018 WEBRip 1080p] MVO [NewStudio] bober100 Скачать
1 | 0
Зарубежные сериалы [ 5.47 GB ] Летящие сквозь ночь / Nightflyers / Сезон: 1 / Серии: 1-10 из 10 [2018 WEBRip] MVO [KosharaSerials] bober100 Скачать
1 | 0
Зарубежные сериалы [ 12.71 GB ] Летящие сквозь ночь / Nightflyers / Сезон: 1 / Серия: 1-10 из 10 [2018 WEBRip 720p] [DVO] killermax2013 Скачать
1 | 0
Зарубежные сериалы [ 14.15 GB ] Летящие сквозь ночь / Nightflyers / Сезон 1 / Серии 1-10 из 10 [2018 WEB-DL 1080p] MVO [Jaskier] bober100 Скачать
1 | 0
Зарубежные сериалы [ 13.24 GB ] Летящие сквозь ночь / Nightflyers / Сезон: 1 / Серии: 1-10 из 10 [2018 WEB-DL 1080p] MVO [LostFilm] bober100 Скачать
1 | 0
Зарубежные сериалы [ 5.31 GB ] Летящие сквозь ночь / Nightflyers / Manifest / Сезон: 1 / Серии: 1-10 из 10 [2018 WEBRip] [MVO] killermax2013 Скачать
1 | 0
Зарубежные сериалы [ 5.19 GB ] Летящие сквозь ночь / Nightflyers / Сезон: 1 / Серия: 1-10 из 10 [2018 WEB-DLRip] [MVO] killermax2013 Скачать
2 | 0


>> Регистрируемся здесь <<






Отзывы и комментарии о схеме читаем и пишем здесь: ---> Отзывы и комментарии о схеме

Новые благодарочки в телеграм довольных пользователей:
скриншот   скриншот   скриншот   скриншот   скриншот
    Дорогой пользователь! Огромная просьба, поблагодарите релизера, оцените раздачу и оставьте свои комментарий, если Вы скачали Летящие сквозь ночь через торрент бесплатно! Внесите свою лепту в развитие PiratBit!
    Комментировать посты могут только пользователи прошедшие не сложную регистрацию
    Показать сообщения:    

    Летящие сквозь ночь через торрент
    Скачать бесплатно Летящие сквозь ночь
    Летящие сквозь ночь скачать торрент
    Летящие сквозь ночь смотреть онлайн
    Cкачать фильм Летящие сквозь ночь бесплатно
    Летящие сквозь ночь скачать торрент в хорошем качестве
    Летящие сквозь ночь смотреть онлайн бесплатно в хорошем качестве


    Вы не можете начинать темы
    Вы не можете отвечать на сообщения
    Вы не можете редактировать свои сообщения
    Вы не можете удалять свои сообщения
    Вы не можете голосовать в опросах
    Вы не можете прикреплять файлы к сообщениям
    Вы можете скачивать файлы