Ссылка на приватное зеркало всего за 1$. Внимание количество ограничено!!!

OK

1+1

iTunes

мы

OK

1

WEB-DLRip

Джокер

Пифагор

Ведьмак / The Witcher сериал

iTunes

ПШазам

ОК

Оно 2

iTunes

30
pack

Вам бонус

ВАЖНО

!!Акция!!

Alien_RageХит недели

RePack

Resident Evil 21

ИГРА 18+

pack

RePack

jed

RePack

fifa19

RePack

Assassins Creed: Odyssey

RePack

NEED FOR SPEED™ PAYBACK

4 сезон

9 сезон

Бесстыжие 9 сезон

Все сериалы

все сериалы на PB.wtf

RePack

FAR CRY 5
  

Гордость, предубеждения и омела / Pride, Prejudice and Mistletoe (Дон МакБрити) [2018, Мелодрама, HDTVRip 720p] MVO ["Синема УС"] pb.wtf

Гордость, предубеждения и омела через торрент pb.wtf

Размер: 2.88 GB | Добавлен: 1 год 1 мес. назад | Торрент скачан:8 раз
Скачать  

05-12-2018 09:36 Гордость, предубеждения и омела Скачать торрент  

Гордость, предубеждения и омела / Pride, Prejudice and MistletoeГод выпуска: 2018
Страна: США
Жанр: Мелодрама
Продолжительность: 01:25:27
Перевод: Любительский (многоголосый) | "Синема УС"
Субтитры: отсутствуют

Режиссер: Дон МакБрити

rating

В ролях:

Лейси Чаберт, Брендан Пенни, Шерри Миллер, Арт Хиндл, Женевьева Кенг, Морган Дэвид Джонс, Стив Белфорд, Али Хассан, Паулино Нюнс, Катрин Томас

Описание:

Дарси - карьеристка, которая так и не нашла любовь. Но её жизнь полностью перевернётся, когда она приедет на праздники в родной город.

Качество: HDTVRip 720p
Формат: MKV

Видео: h.264,4 446 kb/s, 1280x714
Аудио#1: Русский, (AC3, 2 ch, 384 Кбит/с)
скриншот  скриншот  скриншот  

Общее
Уникальный идентификатор : 205898622669665773745532326614971874922 (0x9AE6A1DDCEA6D8598E4BD804C2067E6A)
Полное имя : D:\Pride.Prejudice.and.Mistletoe.2018.P.HDTV.72Op_KOSHARA.mkv
Формат : Matroska
Версия формата : Version 2
Размер файла : 2,88 Гбайт
Продолжительность : 1 ч. 25 м.
Режим общего битрейта : Переменный
Общий поток : 4832 Кбит/сек
Дата кодирования : UTC 2018-12-03 18:40:16
Программа кодирования : mkvmerge v8.3.0 ('Over the Horizon') 64bit
Библиотека кодирования : libebml v1.3.1 + libmatroska v1.4.2

Видео
Идентификатор : 1
Формат : AVC
Формат/Информация : Advanced Video Codec
Профиль формата : High@L4.1
Параметр CABAC формата : Да
Параметр RefFrames формата : 4 кадра
Идентификатор кодека : V_MPEG4/ISO/AVC
Продолжительность : 1 ч. 25 м.
Вид битрейта : Переменный
Битрейт : 4446 Кбит/сек
Максимальный битрейт : 5000 Кбит/сек
Ширина : 1280 пикселей
Высота : 714 пикселей
Соотношение сторон : 16:9
Режим частоты кадров : Постоянный
Частота кадров : 23,976 (24000/1001) кадра/сек
Стандарт вещания : Component
Цветовое пространство : YUV
Субдискретизация насыщенности : 4:2:0
Битовая глубина : 8 бит
Тип развёртки : Прогрессивная
Бит/(Пиксели*Кадры) : 0.199
Размер потока : 2,60 Гбайт (90%)
Default : Да
Forced : Нет
Цветовой диапазон : Limited
Основные цвета : BT.709
Характеристики трансфера : BT.709
Коэффициенты матрицы : BT.709

Аудио
Идентификатор : 2
Формат : AC-3
Формат/Информация : Audio Coding 3
Расширение режима : CM (complete main)
Параметр Endianness формата : Big
Идентификатор кодека : A_AC3
Продолжительность : 1 ч. 25 м.
Вид битрейта : Постоянный
Битрейт : 384 Кбит/сек
Каналы : 2 канала
Расположение каналов : Front: L R
Частота : 48,0 КГц
Частота кадров : 31,250 кадров/сек (1536 spf)
Метод сжатия : С потерями
Размер потока : 235 Мбайт (8%)
Default : Да
Forced : Нет

pb.wtf



Скачать Гордость, предубеждения и омела через торрент https://d.radikal.ru/d02/1812/77/adecdd89772d.jpg Скачать фильм Гордость, предубеждения и омела через торрент бесплантно в хорошем качестве Описание: Дарси - карьеристка, которая так и не нашла любовь. Но её жизнь полностью перевернётся, когда она приедет на праздники в родной ... 10 10 4
Торрент: Зарегистрирован [2018-12-05 09:36] · скачан: 8 раз
Статус: T временная
Размер: 2.88 GB
Как cкачать? Как скачать Гордость, предубеждения и омела через торрент | qTorrent

% Раздел Тема Автор DL S | L
T Фильмы (мультфильмы) cо спонсором показа (Новинки AVI/MKV) [ 1.37 GB ] Гордость предубеждения и омела / Pride Prejudice and Mistletoe [2018 Мело HDTVRip] MVO ["Синема УС"] bober100 Скачать
1 | 0

28-11-2019 20:33  

Отключить всю рекламу на сайте

    Дорогой пользователь! Огромная просьба, поблагодарите релизера, оцените раздачу и оставьте свои комментарий, если Вы скачали Гордость, предубеждения и омела через торрент бесплатно! Внесите свою лепту в развитие PiratBit!
    Комментировать посты могут только пользователи прошедшие не сложную регистрацию
    Показать сообщения:    

    Гордость, предубеждения и омела через торрент
    Скачать бесплатно Гордость, предубеждения и омела
    Гордость, предубеждения и омела скачать торрент
    Гордость, предубеждения и омела смотреть онлайн
    Cкачать фильм Гордость, предубеждения и омела бесплатно
    Гордость, предубеждения и омела скачать торрент в хорошем качестве
    Гордость, предубеждения и омела смотреть онлайн бесплатно в хорошем качестве


    Вы не можете начинать темы
    Вы не можете отвечать на сообщения
    Вы не можете редактировать свои сообщения
    Вы не можете удалять свои сообщения
    Вы не можете голосовать в опросах
    Вы не можете прикреплять файлы к сообщениям
    Вы можете скачивать файлы