Ссылка на приватное зеркало всего за 1$. Внимание количество ограничено!!!

OK

1+1

iTunes

мы

OK

1

WEB-DLRip

Джокер

Пифагор

Ведьмак / The Witcher сериал

iTunes

ПШазам

ОК

Оно 2

iTunes

30
pack

Вам бонус

ВАЖНО

!!Акция!!

Alien_RageХит недели

RePack

Resident Evil 21

ИГРА 18+

pack

RePack

jed

RePack

fifa19

RePack

Assassins Creed: Odyssey

RePack

NEED FOR SPEED™ PAYBACK

4 сезон

9 сезон

Бесстыжие 9 сезон

Все сериалы

все сериалы на PB.wtf

RePack

FAR CRY 5
  

Рождество ветерана / A Veteran's Christmas (Марк Жан) [2018, Мелодрама, HDTVRip 720p] MVO ["Синема УС"] pb.wtf

Рождество ветерана через торрент pb.wtf

Размер: 2.91 GB | Добавлен: 1 год 1 мес. назад | Торрент скачан:13 раз
Скачать  

05-12-2018 09:49 Рождество ветерана Скачать торрент  

Рождество ветерана / A Veteran's ChristmasГод выпуска: 2018
Страна: США
Жанр: Мелодрама
Продолжительность: 01:25:52
Перевод: Любительский (многоголосый) | "Синема УС"
Субтитры: отсутствуют

Режиссер: Марк Жан

rating

В ролях:

Шон Фэрис, Элоиза Мамфорд, Мэри Лонг, Аманда Лисман, Джейкоб Блэр, Пола Бэррет, Ричард Во, Дженна Вейр, Джесс Браун, Ричард Фицпатрик

Описание:

Капитан Грейс Гарланд, заслуженный ветеран США, возвращается домой после поисково-спасательных командировок в Афганистан. Из-за разлуки с любимым напарником Грейс должна заново открыть для себя магию Рождества. Когда Грейс застревает в городе Риверс Кроссинг за пару недель до Рождества, местный судья Джо Питерсон предлагает ей ночлег и решает показать Грейс всё, что ей не хватало: Рождество, семью, общину и любовь.

Качество: HDTVRip 720p
Формат: MKV

Видео: 4 470 kb/s, 1280x720
Аудио#1: Русский, (AC3, 2 ch, 384 Кбит/с)
скриншот  скриншот  скриншот  

Общее
Уникальный идентификатор : 241332815347845536036155485595232878037 (0xB58F0272CC2196D0B0726795859BBDD5)
Полное имя : D:\a.veterans.christmas.2018.P.HDTV.72Op_KOSHARA.mkv
Формат : Matroska
Версия формата : Version 2
Размер файла : 2,91 Гбайт
Продолжительность : 1 ч. 25 м.
Режим общего битрейта : Переменный
Общий поток : 4856 Кбит/сек
Дата кодирования : UTC 2018-12-03 18:38:00
Программа кодирования : mkvmerge v8.3.0 ('Over the Horizon') 64bit
Библиотека кодирования : libebml v1.3.1 + libmatroska v1.4.2

Видео
Идентификатор : 1
Формат : AVC
Формат/Информация : Advanced Video Codec
Профиль формата : High@L4.1
Параметр CABAC формата : Да
Параметр RefFrames формата : 4 кадра
Идентификатор кодека : V_MPEG4/ISO/AVC
Продолжительность : 1 ч. 25 м.
Вид битрейта : Переменный
Битрейт : 4470 Кбит/сек
Максимальный битрейт : 5000 Кбит/сек
Ширина : 1280 пикселей
Высота : 720 пикселей
Соотношение сторон : 16:9
Режим частоты кадров : Постоянный
Частота кадров : 23,976 (24000/1001) кадра/сек
Стандарт вещания : Component
Цветовое пространство : YUV
Субдискретизация насыщенности : 4:2:0
Битовая глубина : 8 бит
Тип развёртки : Прогрессивная
Бит/(Пиксели*Кадры) : 0.198
Размер потока : 2,62 Гбайт (90%)
Default : Да
Forced : Нет
Цветовой диапазон : Limited
Основные цвета : BT.709
Характеристики трансфера : BT.709
Коэффициенты матрицы : BT.709

Аудио
Идентификатор : 2
Формат : AC-3
Формат/Информация : Audio Coding 3
Расширение режима : CM (complete main)
Параметр Endianness формата : Big
Идентификатор кодека : A_AC3
Продолжительность : 1 ч. 25 м.
Вид битрейта : Постоянный
Битрейт : 384 Кбит/сек
Каналы : 2 канала
Расположение каналов : Front: L R
Частота : 48,0 КГц
Частота кадров : 31,250 кадров/сек (1536 spf)
Метод сжатия : С потерями
Размер потока : 236 Мбайт (8%)
Default : Да
Forced : Нет

pb.wtf



Скачать Рождество ветерана через торрент http://img14.lostpic.net/2018/12/05/af1c0e102009e57501da892a36dda3e5.jpg Скачать фильм Рождество ветерана через торрент бесплантно в хорошем качестве Описание: Капитан Грейс Гарланд, заслуженный ветеран США, возвращается домой после поисково-спасательных командировок в Афганистан. Из-за ... 10 10 2
Торрент: Зарегистрирован [2018-12-05 09:49] · скачан: 13 раз
Статус: T временная
Размер: 2.91 GB
Как cкачать? Как скачать Рождество ветерана через торрент | qTorrent

28-11-2019 20:33  

Отключить всю рекламу на сайте

    Дорогой пользователь! Огромная просьба, поблагодарите релизера, оцените раздачу и оставьте свои комментарий, если Вы скачали Рождество ветерана через торрент бесплатно! Внесите свою лепту в развитие PiratBit!
    Комментировать посты могут только пользователи прошедшие не сложную регистрацию
    Показать сообщения:    

    Рождество ветерана через торрент
    Скачать бесплатно Рождество ветерана
    Рождество ветерана скачать торрент
    Рождество ветерана смотреть онлайн
    Cкачать фильм Рождество ветерана бесплатно
    Рождество ветерана скачать торрент в хорошем качестве
    Рождество ветерана смотреть онлайн бесплатно в хорошем качестве


    Вы не можете начинать темы
    Вы не можете отвечать на сообщения
    Вы не можете редактировать свои сообщения
    Вы не можете удалять свои сообщения
    Вы не можете голосовать в опросах
    Вы не можете прикреплять файлы к сообщениям
    Вы можете скачивать файлы