Ссылка на приватное зеркало всего за 1$. Внимание количество ограничено!!!

OK

1+1

iTunes

мы

OK

1

WEB-DLRip

Джокер

Пифагор

Ведьмак / The Witcher сериал

iTunes

ПШазам

ОК

Оно 2

iTunes

30
pack

Вам бонус

ВАЖНО

!!Акция!!

Alien_RageХит недели

RePack

Resident Evil 21

ИГРА 18+

pack

RePack

jed

RePack

fifa19

RePack

Assassins Creed: Odyssey

RePack

NEED FOR SPEED™ PAYBACK

4 сезон

9 сезон

Бесстыжие 9 сезон

Все сериалы

все сериалы на PB.wtf

RePack

FAR CRY 5
  

На острие ножа / The Pinch (Эшли Скотт Мейерс) [2018, Боевик, триллер, криминал, WEB-DL 720p] MVO ["Синема УС"] pb.wtf

На острие ножа через торрент pb.wtf

Размер: 3.06 GB | Добавлен: 1 год 1 мес. назад | Торрент скачан:28 раз
Скачать  

05-12-2018 10:49 На острие ножа Скачать торрент  

На острие ножа / The PinchГод выпуска: 2018
Страна: США
Жанр: Боевик, триллер, криминал
Продолжительность: 01:24:33
Перевод: Любительский (многоголосый) | "Синема УС"
Субтитры: отсутствуют

Режиссер: Эшли Скотт Мейерс

rating

В ролях:

Ганнер Райт, Джеймс Эстон Лэйк, Кэндис Болек, Террелл Диксон, Филлип Мусумечи, Дана Койл, Брэкстон Дэвис, Йен Лоэр, Эмори Джейсон Хофферман, Гэвин Перетти

Описание:

Кейн, среднего пошиба гангстер, прикрывающийся строительным бизнесом, решает убрать своего подчиненного и по совместительству друга детства по имени Роб, опасаясь, что тот сдаст его властям. Но мелкая сошка оказывается проворнее своего босса, и вот Кейн уже в плену у Роба, и за него требуют выкуп...

Качество: WEB-DL 720p
Формат: MKV

Видео: h.264, 4 793 Кбит/с, 1280x532
Аудио#1: Русский, (AC3, 2 ch, 384 Кбит/с)
скриншот  скриншот  скриншот  

Общее
Уникальный идентификатор : 240353137988050294986209285399533181976 (0xB4D254A0186DD428812EB4C5BCC1DC18)
Полное имя : D:\The.Pinch.2018.P.WEB-DL.72Op.mkv
Формат : Matroska
Версия формата : Version 2
Размер файла : 3,06 Гбайт
Продолжительность : 1 ч. 24 м.
Режим общего битрейта : Переменный
Общий поток : 5179 Кбит/сек
Дата кодирования : UTC 2018-12-03 15:11:59
Программа кодирования : mkvmerge v8.3.0 ('Over the Horizon') 64bit
Библиотека кодирования : libebml v1.3.1 + libmatroska v1.4.2

Видео
Идентификатор : 1
Формат : AVC
Формат/Информация : Advanced Video Codec
Профиль формата : High@L4.1
Параметр CABAC формата : Да
Параметр RefFrames формата : 4 кадра
Идентификатор кодека : V_MPEG4/ISO/AVC
Продолжительность : 1 ч. 24 м.
Вид битрейта : Переменный
Битрейт : 4793 Кбит/сек
Максимальный битрейт : 5500 Кбит/сек
Ширина : 1280 пикселей
Высота : 532 пикселя
Соотношение сторон : 2,40:1
Режим частоты кадров : Постоянный
Частота кадров : 23,976 (24000/1001) кадра/сек
Стандарт вещания : Component
Цветовое пространство : YUV
Субдискретизация насыщенности : 4:2:0
Битовая глубина : 8 бит
Тип развёртки : Прогрессивная
Бит/(Пиксели*Кадры) : 0.287
Размер потока : 2,77 Гбайт (91%)
Default : Да
Forced : Нет
Цветовой диапазон : Limited
Основные цвета : BT.709
Характеристики трансфера : BT.709
Коэффициенты матрицы : BT.709

Аудио
Идентификатор : 2
Формат : AC-3
Формат/Информация : Audio Coding 3
Расширение режима : CM (complete main)
Параметр Endianness формата : Big
Идентификатор кодека : A_AC3
Продолжительность : 1 ч. 24 м.
Вид битрейта : Постоянный
Битрейт : 384 Кбит/сек
Каналы : 2 канала
Расположение каналов : Front: L R
Частота : 48,0 КГц
Частота кадров : 31,250 кадров/сек (1536 spf)
Метод сжатия : С потерями
Размер потока : 232 Мбайт (7%)
Default : Да
Forced : Нет

pb.wtf



Скачать На острие ножа через торрент https://c.radikal.ru/c01/1812/12/3a323ec65a1f.jpg Скачать фильм На острие ножа через торрент бесплантно в хорошем качестве Описание: Кейн, среднего пошиба гангстер, прикрывающийся строительным бизнесом, решает убрать своего подчиненного и по совместительству ... 10 10 2
Торрент: Зарегистрирован [2018-12-05 10:49] · скачан: 28 раз
Статус: T временная
Размер: 3.06 GB
Как cкачать? Как скачать На острие ножа через торрент | qTorrent

% Раздел Тема Автор DL S | L
T Фильмы (мультфильмы) cо спонсором показа (Новинки AVI/MKV) [ 1.37 GB ] На острие ножа / The Pinch [2018 WEB-DLRip] MVO ["Синема УС"] bober100 Скачать
1 | 0

28-11-2019 20:33  

Отключить всю рекламу на сайте

    Дорогой пользователь! Огромная просьба, поблагодарите релизера, оцените раздачу и оставьте свои комментарий, если Вы скачали На острие ножа через торрент бесплатно! Внесите свою лепту в развитие PiratBit!
    Комментировать посты могут только пользователи прошедшие не сложную регистрацию
    Показать сообщения:    

    На острие ножа через торрент
    Скачать бесплатно На острие ножа
    На острие ножа скачать торрент
    На острие ножа смотреть онлайн
    Cкачать фильм На острие ножа бесплатно
    На острие ножа скачать торрент в хорошем качестве
    На острие ножа смотреть онлайн бесплатно в хорошем качестве


    Вы не можете начинать темы
    Вы не можете отвечать на сообщения
    Вы не можете редактировать свои сообщения
    Вы не можете удалять свои сообщения
    Вы не можете голосовать в опросах
    Вы не можете прикреплять файлы к сообщениям
    Вы можете скачивать файлы