Мега распродажа FORZA HORIZON 4 ULTIMATE+ВСЕ DLC+ОНЛАЙН всего за 499р. 349 руб. (супер цена). Внимание количество ограничено!!!

Лицензия

30

iTunes

мы

iTunes

1

1 сезон

Чернобыль

1 сезон

Ральф против интернета

MVO

Покемон. Детектив Пикачу

8 сезон

Игра престолов

iTunes

1+1

ИГРА 18+

pack

ВАЖНО

!!Акция!!

Alien_RageХит недели

RePack

Resident Evil 21
pack

RePack

Metro:Exodus

!!Акция!!

Alien_Rage

RePack

fifa19

RePack

Assassins Creed: Odyssey

RePack

NEED FOR SPEED™ PAYBACK

3 сезон

9 сезон

Бесстыжие 9 сезон

Все сериалы

все сериалы на PB.wtf

RePack

FAR CRY 5
Ребята, катастрофически не хватает 2730р. для оплаты серверов за МАЙ (всвязи с блокировками трафик упал в 3 раза), 1-2р., выручайте.
  

Летящие сквозь ночь / Nightflyers / Сезон 1 / Серии 1-10 из 10 (Эндрю МакКарти, Майк Кэхилл, Мэгги Кили) [2018, ужасы, фантастика, WEB-DL 1080p] MVO [Jaskier] pb.wtf

Летящие сквозь ночь через торрент pb.wtf

Размер: 14.15 GB | Добавлен: 6 мес. назад | Торрент скачан:36 раз
Скачать  

05-12-2018 12:30 Летящие сквозь ночь Скачать торрент  

Летящие сквозь ночь / Nightflyers

Год выпуска: 2018
Страна: США
Жанр: ужасы, фантастика
Продолжительность: ~ 00:44:00
Перевод: Профессиональный (многоголосый закадровый) | Jaskier
Субтитры: отсутствуют

Режиссёр: Эндрю МакКарти, Майк Кэхилл, Мэгги Кили

В ролях:

Джоди Смит, Гретхен Мол, Оуэн Мэкен, Дэвид Аджала, Энгус Сэмпсон, Сэм Страйк, Майя Эшет, Брайан Ф. О`Бирн, Филлип Риз

Описание:

Отправляемся в далекое будущее, где судьба родной человеческой планеты висит на волоске. Именно поэтому люди предпринимают попытку спасения Земли. Они организуют экспедицию к далеким звездам и планетам за границами солнечной системы. Где-то на границах галактики найдены следы инопланетного космического корабля, который может стать путем к спасению Земли. Однако вскоре становится ясно, что операция просто так не завершится, ведь даже бортовой компьютер оказывается против человеческого проникновения на палубу чужого корабля. Кто бы что ни говорил, но впереди главных героев ждет поистине кошмарное испытание.

rating

Качество: WEB-DL 1080p
Формат: MKV

Видео: X264, ~ 3600 kbps, 1920x1080 (16:9), 23.976 fps
Аудио 1: AC3, 48,0 КГц, 6 ch, 384 kbps - RUS
Аудио 2: AC3, 48,0 КГц, 6 ch, 384 kbps - ENG


Реклама: аудио, два раза в начале и в конце по 12 секунд
Общее
Уникальный идентификатор                 : 229717570506817361073608330436417518365 (0xACD1FEA9D7C68240B08FD9369CDD7B1D)
Полное имя                               : V:ONGOING\Nightflyers Season 1 (WEB-DL l 1080p l JASKiER)\Nightflyers.S01E01.1080p.Jaskier.mkv
Формат                                   : Matroska
Версия формата                           : Version 2
Размер файла                             : 1,82 Гбайт
Продолжительность                        : 58 м.
Общий поток                              : 4477 Кбит/сек
Дата кодирования                         : UTC 2018-12-05 01:16:08
Программа кодирования                    : mkvmerge v7.8.0 ('River Man') 32bit built on Apr  3 2015 12:11:22
Библиотека кодирования                   : libebml v1.3.1 + libmatroska v1.4.2

Видео
Идентификатор                            : 1
Формат                                   : AVC
Формат/Информация                        : Advanced Video Codec
Профиль формата                          : High@L4
Параметр CABAC формата                   : Да
Параметр ReFrames формата                : 4 кадра
Идентификатор кодека                     : V_MPEG4/ISO/AVC
Продолжительность                        : 58 м.
Битрейт                                  : 3620 Кбит/сек
Ширина                                   : 1920 пикселей
Высота                                   : 1080 пикселей
Соотношение сторон                       : 16:9
Режим частоты кадров                     : Постоянный
Частота кадров                           : 23,976 (24000/1001) кадра/сек
Цветовое пространство                    : YUV
Субдискретизация насыщенности            : 4:2:0
Битовая глубина                          : 8 бит
Тип развёртки                            : Прогрессивная
Бит/(Пиксели*Кадры)                      : 0.073
Размер потока                            : 1,48 Гбайт (81%)
Default                                  : Да
Forced                                   : Нет
Цветовой диапазон                        : Limited
Основные цвета                           : BT.709
Характеристики трансфера                 : BT.709
Коэффициенты матрицы                     : BT.709

Аудио #1
Идентификатор                            : 2
Формат                                   : AC-3
Формат/Информация                        : Audio Coding 3
Расширение режима                        : CM (complete main)
Параметр Endianness формата              : Big
Идентификатор кодека                     : A_AC3
Продолжительность                        : 58 м.
Вид битрейта                             : Постоянный
Битрейт                                  : 384 Кбит/сек
Каналы                                   : 6 каналов
Расположение каналов                     : Front: L C R, Side: L R, LFE
Частота                                  : 48,0 КГц
Частота кадров                           : 31,250 кадров/сек (1536 spf)
Метод сжатия                             : С потерями
Размер потока                            : 160 Мбайт (9%)
Заголовок                                : Jaskier
Язык                                     : Russian
Default                                  : Да
Forced                                   : Нет

Аудио #2
Идентификатор                            : 3
Формат                                   : AC-3
Формат/Информация                        : Audio Coding 3
Расширение режима                        : CM (complete main)
Параметр Endianness формата              : Big
Идентификатор кодека                     : A_AC3
Продолжительность                        : 58 м.
Вид битрейта                             : Постоянный
Битрейт                                  : 384 Кбит/сек
Каналы                                   : 6 каналов
Расположение каналов                     : Front: L C R, Side: L R, LFE
Частота                                  : 48,0 КГц
Частота кадров                           : 31,250 кадров/сек (1536 spf)
Метод сжатия                             : С потерями
Размер потока                            : 160 Мбайт (9%)
Язык                                     : English
Default                                  : Нет
Forced                                   : Нет
скриншот  скриншот  скриншот  
Когда раздача ведётся путём добавления новых серий, при каждом добавлении создётся новый торрент. Чтобы начать докачку новой серии, пользователям необходимо сделать следующее:
(1) остановить скачивание,
(2) удалить старый торрент у себя из клиента (старые серии удалять не надо),
(3) скачать новый торрент и запустить его у себя в клиенте вместо старого, при этом указать клиенту путь в старую папку, куда и должно происходить скачивание новых серий.
Ваш клиент при этом должен произвести хеширование (проверку) старой папки (если не производит сам - помогите ему сделать это), и будет докачивать только те серии, которых у вас ещё нет. Старые серии при этом не удаляются, а продолжают раздаваться!
Eсли вы уже удалили старые серии, то предотвратить повторную закачку старых серий можно, отжав галочку в соответсвующих местах при запуске нового торрента. По возможности, желательно не удалять старые серии как можно дольше, чтобы релизёр не столько продолжал раздавать старые серии, а смог сконцентрироваться на новых.
pb.wtf



Скачать Летящие сквозь ночь через торрент https://i107.fastpic.ru/big/2018/1204/ad/107e7f737127ef5b76a43e039c4188ad.png Скачать фильм Летящие сквозь ночь через торрент бесплантно в хорошем качестве Описание: Отправляемся в далекое будущее, где судьба родной человеческой планеты висит на волоске. Именно поэтому люди предпринимают ... 10 10 5
Торрент: Зарегистрирован [2018-12-19 01:27] · скачан: 36 раз
Статус: √ проверено
Размер: 14.15 GB
Как cкачать? Как скачать Летящие сквозь ночь через торрент | qTorrent

% Раздел Тема Автор DL S | L
Зарубежные сериалы [ 12.76 GB ] Летящие сквозь ночь / Nightflyers / Сезон: 1 / Серии: 1-10 из 10 [2018 WEBRip 1080p] MVO [NewStudio] bober100 Скачать
1 | 0
Зарубежные сериалы [ 5.47 GB ] Летящие сквозь ночь / Nightflyers / Сезон: 1 / Серии: 1-10 из 10 [2018 WEBRip] MVO [KosharaSerials] bober100 Скачать
1 | 0
Зарубежные сериалы [ 12.71 GB ] Летящие сквозь ночь / Nightflyers / Сезон: 1 / Серия: 1-10 из 10 [2018 WEBRip 720p] [DVO] killermax2013 Скачать
1 | 0
Зарубежные сериалы [ 5.75 GB ] Летящие сквозь ночь / Nightflyers / Сезон: 1 / Серии: 1-10 из 10 [2018 WEB-DLRip] MVO [LostFilm] bober100 Скачать
2 | 0
Зарубежные сериалы [ 13.24 GB ] Летящие сквозь ночь / Nightflyers / Сезон: 1 / Серии: 1-10 из 10 [2018 WEB-DL 1080p] MVO [LostFilm] bober100 Скачать
1 | 0
Зарубежные сериалы [ 5.31 GB ] Летящие сквозь ночь / Nightflyers / Manifest / Сезон: 1 / Серии: 1-10 из 10 [2018 WEBRip] [MVO] killermax2013 Скачать
1 | 0
Зарубежные сериалы [ 5.19 GB ] Летящие сквозь ночь / Nightflyers / Сезон: 1 / Серия: 1-10 из 10 [2018 WEB-DLRip] [MVO] killermax2013 Скачать
1 | 0


>> Регистрируемся здесь <<






Отзывы и комментарии о схеме читаем и пишем здесь: ---> Отзывы и комментарии о схеме

Новые благодарочки в телеграм довольных пользователей:
скриншот   скриншот   скриншот   скриншот   скриншот
    Дорогой пользователь! Огромная просьба, поблагодарите релизера, оцените раздачу и оставьте свои комментарий, если Вы скачали Летящие сквозь ночь через торрент бесплатно! Внесите свою лепту в развитие PiratBit!
    Комментировать посты могут только пользователи прошедшие не сложную регистрацию
    Показать сообщения:    

    Летящие сквозь ночь через торрент
    Скачать бесплатно Летящие сквозь ночь
    Летящие сквозь ночь скачать торрент
    Летящие сквозь ночь смотреть онлайн
    Cкачать фильм Летящие сквозь ночь бесплатно
    Летящие сквозь ночь скачать торрент в хорошем качестве
    Летящие сквозь ночь смотреть онлайн бесплатно в хорошем качестве


    Вы не можете начинать темы
    Вы не можете отвечать на сообщения
    Вы не можете редактировать свои сообщения
    Вы не можете удалять свои сообщения
    Вы не можете голосовать в опросах
    Вы не можете прикреплять файлы к сообщениям
    Вы можете скачивать файлы