Ребята, если до конца года каждый наш пользователь пожертвует хотя бы 10 рублей, нам хватит денег оплатить все наши расходы.

iTunes

iTunes

Миссия невыполнима: Последствия

iTunes

Поиск

4 сезон

дом

MVO

venom

iTunes

Багровая мята

iTunes

Проклятие монахини

iTunes

Человек на Луне

ИГРА 18+

pack

RePack

Battlefield V Хит недели

RePack

Assassins Creed: Odyssey
pack

RePack

Darksiders 3

iTunes 4K

Миссия невыполнима: Последствия

RePack

fifa19

!!Акция!!

Alien_RageХит недели

RePack

NEED FOR SPEED™ PAYBACK

SATRip

9 сезон

Бесстыжие 9 сезон

Все сериалы

все сериалы на PB.wtf

iTunes

Мэнди

RePack

FAR CRY 5
  

Лягушка в маске / Der Frosch mit der Maske (Харальд Райнль) [1959, триллер, криминал, BDRip 1080p by msltel] MVO

Лягушка в маске через торрент

Раздают: 1 [ 0 KB/s ]
Размер: 8.02 GB | Добавлен: 13 д. назад | Торрент скачан:2 раза
Скачать  

06-12-2018 07:05 Лягушка в маске Скачать торрент  

Название: Лягушка в маске
Оригинальное название: Der Frosch mit der Maske
Год выпуска: 1959
Страна: Дания, Германия (ФРГ)
Жанр: триллер, криминал
Продолжительность: 01:30:37
Перевод: профессиональный многоголосый

Режиссер: Харальд Райнль
В ролях: Йоахим Фуксбергер, Эльфи фон Калкройт, Йохен Брокманн, Карл Ланге, Дитер Эпплер, Ева Пфлуг, Вальтер Вилц, Фриц Расп, Эрвин Штраль, Эрнст Фриц Фюрбрингер

О фильме: Инспектор Скотланд Ярда и американский детектив-любитель разыскивают преступника по кличке «Лягушка». Это прозвище он получил за маску с выпученными глазами, в которой совершает преступления, и за татуировки лягушек на руках. Следствие приводит их в поместье загадочного миллионера, в дочку которого влюбляются и американец, и преступник... Фильм по одноимённому роману Эдгара Уоллеса.



Качество: BDRip 1080p
Формат: MKV
Видео: MPEG-4 AVC, 11.7 Mбит/с, 1438x1080
Аудио 1: русский, AC3, 192 kbps, 2 ch, 48 kHz [закадровый многоголосый, 5 канал]
Аудио 2: немецкий, DTS, 768 kbps, 2 ch, 48 kHz [оригинал]
Субтитры: английские
Общее
Уникальный идентификатор : 194311370236216445455163936034151263686 (0x922F0236B55BAB509E2555B31054EDC6)
Полное имя : D:\Video\Лягушка в маске.1959.BDRip 1080p by msltel.mkv
Формат : Matroska
Версия формата : Version 4
Размер файла : 8,02 Гбайт
Продолжительность : 1 ч. 30 м.
Общий поток : 12,7 Мбит/сек
Название фильма : Rip by msltel
Дата кодирования : UTC 2018-12-06 07:50:19
Программа кодирования : mkvmerge v8.2.0 ('World of Adventure') 64bit
Библиотека кодирования : libebml v1.3.1 + libmatroska v1.4.2

Видео
Идентификатор : 1
Формат : AVC
Формат/Информация : Advanced Video Codec
Профиль формата : High@L4.1
Настройки формата : CABAC / 4 Ref Frames
Параметр CABAC формата : Да
Параметр RefFrames формата : 4 кадра
Идентификатор кодека : V_MPEG4/ISO/AVC
Продолжительность : 1 ч. 30 м.
Битрейт : 11,7 Мбит/сек
Ширина : 1438 пикселей
Высота : 1080 пикселей
Соотношение сторон : 4:3
Режим частоты кадров : Постоянный
Частота кадров : 24,000 кадра/сек
Цветовое пространство : YUV
Субдискретизация насыщенности : 4:2:0
Битовая глубина : 8 бит
Тип развёртки : Прогрессивная
Бит/(Пиксели*Кадры) : 0.314
Размер потока : 7,41 Гбайт (92%)
Библиотека кодирования : x264 core 155 r2901 7d0ff22
Настройки программы : cabac=1 / ref=4 / deblock=1:-3:-2 / analyse=0x3:0x113 / me=umh / subme=11 / psy=1 / psy_rd=1.00:0.15 / mixed_ref=1 / me_range=32 / chroma_me=1 / trellis=2 / 8x8dct=1 / cqm=0 / deadzone=21,11 / fast_pskip=0 / chroma_qp_offset=-3 / threads=6 / lookahead_threads=1 / sliced_threads=0 / nr=0 / decimate=1 / interlaced=0 / bluray_compat=0 / constrained_intra=0 / bframes=10 / b_pyramid=2 / b_adapt=2 / b_bias=0 / direct=1 / weightb=1 / open_gop=0 / weightp=2 / keyint=230 / keyint_min=23 / scenecut=40 / intra_refresh=0 / rc_lookahead=40 / rc=crf / mbtree=1 / crf=16.7 / qcomp=0.60 / qpmin=0 / qpmax=69 / qpstep=4 / vbv_maxrate=62500 / vbv_bufsize=78125 / crf_max=0.0 / nal_hrd=none / filler=0 / ip_ratio=1.40 / aq=1:1.00
Язык : German
Default : Да
Forced : Нет

Аудио #1
Идентификатор : 2
Формат : AC-3
Формат/Информация : Audio Coding 3
Коммерческое название : Dolby Digital
Идентификатор кодека : A_AC3
Продолжительность : 1 ч. 30 м.
Вид битрейта : Постоянный
Битрейт : 192 Кбит/сек
Каналы : 2 канала
Channel layout : L R
Частота : 48,0 КГц
Частота кадров : 31,250 кадров/сек (1536 SPF)
Битовая глубина : 16 бит
Метод сжатия : С потерями
Размер потока : 124 Мбайт (2%)
Заголовок : MVO 5 канал
Язык : Russian
ServiceKind/String : Complete Main
Default : Да
Forced : Нет

Аудио #2
Идентификатор : 3
Формат : DTS
Формат/Информация : Digital Theater Systems
Идентификатор кодека : A_DTS
Продолжительность : 1 ч. 30 м.
Вид битрейта : Постоянный
Битрейт : 768 Кбит/сек
Каналы : 2 канала
Channel layout : L R
Частота : 48,0 КГц
Частота кадров : 93,750 кадра/сек (512 SPF)
Битовая глубина : 24 бит
Метод сжатия : С потерями
Размер потока : 498 Мбайт (6%)
Заголовок : original
Язык : German
Default : Нет
Forced : Нет

Текст
Идентификатор : 4
Формат : UTF-8
Идентификатор кодека : S_TEXT/UTF8
Идентификатор кодека/Информация : UTF-8 Plain Text
Продолжительность : 1 ч. 29 м.
Битрейт : 54 бит/сек
ElementCount : 753
Размер потока : 35,7 Кбайт (0%)
Заголовок : английские
Язык : English
Default : Нет
Forced : Нет



Скачать Лягушка в маске через торрент https://d.radikal.ru/d01/1812/9d/8f91bf9b4136.jpg Скачать фильм Лягушка в маске через торрент бесплантно в хорошем качестве О фильме: Инспектор Скотланд Ярда и американский детектив-любитель разыскивают преступника по кличке «Лягушка». Это прозвище он получил за ... 8.5 10 2
Торрент: Зарегистрирован [2018-12-06 07:05] · скачан: 2 раз
Статус: √ проверено
Размер: 8.02 GB
Как cкачать? Как скачать Лягушка в маске через торрент | qTorrent

% Раздел Тема Автор DL S | L
Фильмы [HD 720p, 1080p] (Хороший звук DUB, MVO) [ 2.82 GB ] Лягушка в маске / Der Frosch mit der Maske [1959 BDRip 720p by msltel] MVO msltel Скачать
2 | 0


>> Регистрируемся здесь <<






Отзывы и комментарии о схеме читаем и пишем здесь: ---> Отзывы и комментарии о схеме

Новые благодарочки в телеграм довольных пользователей:
скриншот   скриншот   скриншот   скриншот   скриншот
    Дорогой пользователь! Огромная просьба, поблагодарите релизера, оцените раздачу и оставьте свои комментарий, если Вы скачали Лягушка в маске через торрент бесплатно! Внесите свою лепту в развитие PiratBit!
    Комментировать посты могут только пользователи прошедшие не сложную регистрацию
    Показать сообщения:    

    Лягушка в маске через торрент
    Скачать бесплатно Лягушка в маске
    Лягушка в маске скачать торрент
    Лягушка в маске смотреть онлайн
    Cкачать фильм Лягушка в маске бесплатно
    Лягушка в маске скачать торрент в хорошем качестве
    Лягушка в маске смотреть онлайн бесплатно в хорошем качестве


    Вы не можете начинать темы
    Вы не можете отвечать на сообщения
    Вы не можете редактировать свои сообщения
    Вы не можете удалять свои сообщения
    Вы не можете голосовать в опросах
    Вы не можете прикреплять файлы к сообщениям
    Вы можете скачивать файлы